Железный человек - Трилогия / Iron Man - Trilogy (Джон Фавро,Шейн Блэк) [2008,2010,2013 г., фантастика, боевик, триллер, приключения, BDRemux]

Страницы :  1, 2, 3  След.

Ответить на тему
 

DMiTRY ®

Стаж: 6 лет 5 месяцев

Сообщений: 649

Симпатии: 28

-- --Железный человек / Iron Man
Год выпуска: 2008
Страна: США
Жанр: фантастика, боевик, триллер, приключения
Продолжительность: 02:04:05
Перевод: Профессиональный (полное дублирование)

Режиссер: Джон Фавро
В ролях: Роберт Дауни мл., Терренс Дэшон Ховард, Джефф Бриджес, Гвинет Пэлтроу, Лесли Бибб, Шон Тоуб, Фаран Таир, Sayed Badreya, Билл Смитрович, Кларк Грегг, Тим Джини, Уилл Лиман, Марко Хэнлиэн, Кевин Фостер, Гаррет Ноэль, Eileen Weisinger, Ахмед Ахмед, Фахим Фазли, Том Морелло, Герард Сандерс, Тим Ригби
Описание: Миллиардер изобретатель Тони Старк попадает в плен к Афганским террористам, которые пытаются заставить его создать оружие массового поражения. В тайне от своих захватчиков Старк конструирует высокотехнологичную киберброню, которая помогает ему сбежать. Однако по возвращению в США он узнаёт, что в совете директоров его фирмы плетётся заговор, чреватый страшными последствиями. Используя своё последнее изобретение, Старк пытается решить проблемы своей компании радикально...


Качество: BDRemux
Формат: BDAV
Видео кодек: MPEG-4 AVC
Аудио кодек: AC3+DTS
Видео: 1920x1080 at 23.976 fps, MPEG-4 AVC, ~27.13 Mbps avg
Аудио#1: Russian: 48 kHz, AC3, 3/2 (L,C,R,l,r) + LFE ch, ~640.00 kbps avg |Дубляж, Blu-ray CEE|
Аудио#2: Ukrainian: 48 kHz, AC3, 3/2 (L,C,R,l,r) + LFE ch, ~448.00 kbps avg |Дубляж, R5|
Аудио#3: Russian: 48 kHz, AC3, 3/2 (L,C,R,l,r) + LFE ch, ~640.00 kbps avg |Многоголосый закадровый, С.Р.И. (Кравец)|
Аудио#4: Russian: 48 kHz/24-bit, DTS-HD MA 5.1, ~3894.00 kbps avg |Одноголосый закадровый, В.Королев|
Аудио#5: Russian: 48 kHz/24-bit, DTS-HD MA 5.1, ~3895.00 kbps avg |Одноголосый закадровый, А.Гаврилов|
Аудио#6:English: 48 kHz/24-bit, Dolby TrueHD 5.1, ~3493.00 kbps avg
Субтитры: Russian (forced), Ukrainian (forced), English (forced), Russian, Ukrainian, English

 

Скриншоты





Интересные факты...

Дизайн костюма «Марк 3» был создан Филом Сандерсом и Ади Грановом (художник комиксов про Железного Человека). Сам костюм, затем, был сконструирован Stan Winston Studios.
• Роберт Дауни Младший, после окончания съемок фильма 26 июня 2007 года, стал вовлечен в 8-месячную работу со спецэффектами, чтобы с точностью передать все движения Железного Человека.
• Пеппер Потс использует телефон LG KS20. Тони Старк - LG VX9400. Джим Роудз - LG KG810.
• После титров следует небольшая бонусная сцена для самых терпеливых зрителей. В ней появляется Сэмюэль Л. Джексон в роли Ника Фьюри.
• Заключительная схватка напоминает драку Робокопа и металлического наркоторговца Кейна из фильма «Робокоп-2».
• Это первый фильм, полностью финансировавшийся Marvel Studios.
• Джон Фавро решил снимать фильм в Калифорнии, так как, по его мнению, слишком много фильмов про супергероев было снято на Восточном побережье, в частности в Нью-Йорке.
• Николас Кейдж и Том Круз были заинтересованы в исполнении роли Железного Человека. В частности, Том Круз планировал спродюсировать фильм и исполнить главную роль.
• По уже сложившийся традиции, автор комикса Стэн Ли снялся в камео: он играет человека, которого главный герой по ошибке принимает за Хью Хефнера - создателя «Плейбоя».
• В фильме неоднократно звучит музыкальная тема из мультфильма «Железный Человек» 1966-го (казино, постельная сцена и рингтон на мобильнике Роудса).
• Прототипом Тони Старка является изобретатель Говард Хьюз.
• Во время съемки сцены с танком кинематографисты разбили камеру.
• В сцене, где Пеппер в мастерской обнаруживает снимающего броню Тони, можно заметить частично собранный щит Капитана Америка.
• В ранней версии сценария выяснялось, что Тони Старк является создателем щупалец доктора Отто «Осьминога» Октавиуса из «Человека-Паука 2»(2004).
• Пол Беттани озвучил все реплики Джарвиса за 2 часа.
• Изначально, главным злодеем должен был стать Мандарин, однако Джон Фавро посчитал его слишком фантастическим и устаревшим. Если бы Мандарин и появился в фильме, то в качестве индонезийского террориста.
• На роль Тони Старка рассматривались кандидатуры Клайва Оуэна и Сэма Рокуэлла.
• По данному фильму была сделана одноименная игра.
• Гвинет Пэлтроу согласилась на роль Вирджинии Пеппер Поттс при условии, что съемки с ее участием будут проходить недалеко от дома. В итоге на площадку Пэлтроу добиралась за 15 минут.

Медиаинфо

Общее
Полное имя : D:\Видео HD\Железный человек 1-2 часть [2008-2011 BD-REMUX]\IRON_MAN_1
Формат : Blu-ray movie
Продолжительность : 2 ч. 6 м.
Режим общего битрейта : Переменный
Общий поток : 1 бит/сек
Видео
Идентификатор : 4113 (0x1011)
Идентификатор меню : 1 (0x1)
Формат : AVC
Формат/Информация : Advanced Video Codec
Профиль формата : [email protected]
Параметр CABAC формата : Да
Параметр ReFrames формата : 4 кадра
Идентификатор кодека : 27
Продолжительность : 2 ч. 6 м.
Вид битрейта : Переменный
Максимальный битрейт : 39,5 Мбит/сек
Ширина : 1920 пикселей
Высота : 1080 пикселей
Соотношение сторон : 16:9
Частота кадров : 23,976 кадра/сек
Стандарт вещания : NTSC
Цветовое пространство : YUV
Субдискретизация насыщенности : 4:2:0
Битовая глубина : 8 бит
Основные цвета : BT.709-5, BT.1361, IEC 61966-2-4, SMPTE RP177
Характеристики трансфера : BT.709-5, BT.1361
Коэффициенты матрицы : BT.709-5, BT.1361, IEC 61966-2-4 709, SMPTE RP177
Оригинал : 00000.m2ts
Аудио #1
Идентификатор : 4352 (0x1100)
Формат : AC-3
Формат/Информация : Audio Coding 3
Продолжительность : 2 ч. 6 м.
Частота : 48,0 КГц
Метод сжатия : С потерями
Язык : Russian
Аудио #2
Идентификатор : 4353 (0x1101)
Формат : AC-3
Формат/Информация : Audio Coding 3
Продолжительность : 2 ч. 6 м.
Частота : 48,0 КГц
Метод сжатия : С потерями
Язык : Ukrainian
Аудио #3
Идентификатор : 4354 (0x1102)
Формат : AC-3
Формат/Информация : Audio Coding 3
Продолжительность : 2 ч. 6 м.
Частота : 48,0 КГц
Метод сжатия : С потерями
Язык : Russian
Аудио #4
Идентификатор : 4355 (0x1103)
Формат : DTS
Формат/Информация : Digital Theater Systems
Профиль формата : MA
Продолжительность : 2 ч. 6 м.
Частота : 48,0 КГц
Метод сжатия : С потерями
Язык : Russian
Аудио #5
Идентификатор : 4356 (0x1104)
Формат : DTS
Формат/Информация : Digital Theater Systems
Профиль формата : MA
Продолжительность : 2 ч. 6 м.
Частота : 48,0 КГц
Метод сжатия : С потерями
Язык : Russian
Аудио #6
Идентификатор : 4357 (0x1105)
Формат : TrueHD
Продолжительность : 2 ч. 6 м.
Частота : 48,0 КГц
Метод сжатия : Без потерь
Язык : English
Текст #1
Идентификатор : 4608 (0x1200)
Формат : PGS
Язык : Russian
Текст #2
Идентификатор : 4609 (0x1201)
Формат : PGS
Язык : Ukrainian
Текст #3
Идентификатор : 4610 (0x1202)
Формат : PGS
Язык : English
Текст #4
Идентификатор : 4611 (0x1203)
Формат : PGS
Язык : Russian
Текст #5
Идентификатор : 4612 (0x1204)
Формат : PGS
Язык : Ukrainian
Текст #6
Идентификатор : 4613 (0x1205)
Формат : PGS
Язык : English
Меню
00:00:00.000 : Chapter 1
00:09:06.170 : Chapter 2
00:18:00.579 : Chapter 3
00:26:49.941 : Chapter 4
00:35:01.849 : Chapter 5
00:43:15.259 : Chapter 6
00:52:38.488 : Chapter 7
00:59:24.644 : Chapter 8
01:07:32.423 : Chapter 9
01:11:44.300 : Chapter 10
01:18:31.206 : Chapter 11
01:24:40.575 : Chapter 12
01:35:00.111 : Chapter 13
01:44:29.346 : Chapter 14
01:53:31.471 : Chapter 15
-- Железный человек 2 / Iron Man 2
Год выпуска: 2010
Страна: США
Жанр: фантастика, боевик, триллер, приключения
Продолжительность: 02:06:01
Перевод: Профессиональный (полное дублирование)

Режиссер: Джон Фавро
В ролях: Роберт Дауни мл., Дон Чидл, Скарлетт Йоханссон, Гвинет Пэлтроу, Сэм Рокуэлл, Микки Рурк, Сэмюэл Л. Джексон, Кларк Грегг, Джон Слэттери, Гарри Шендлинг
Описание: Прошло полгода с тех пор, как мир узнал, что миллиардер-изобретатель Тони Старк является обладателем уникальной кибер-брони Железного человека. Общественность требует, чтобы Старк передал технологию брони правительству США, но Тони не хочет разглашать её секреты, потому что боится, что она попадёт не в те руки. Между тем Иван Ванко - сын русского учёного, когда-то работавшего на фирму Старка, но потом уволенного и лишенного всего, намерен отомстить Тони за беды своей семьи. Для чего сооружает своё высокотехнологичное оружие.


Качество: BDRemux
Формат: BDAV
Видео кодек: MPEG-4 AVC
Аудио кодек: AC3+DTS
Видео: 1920x1080 at 23.976 fps, MPEG-4 AVC, ~29.05 Mbps avg
Аудио#1: Russian: 48 kHz, AC3, 3/2 (L,C,R,l,r) + LFE ch, ~640.00 kbps avg |Дубляж, Blu-ray CEE|
Аудио#2: Ukrainian: 48 kHz, AC3, 3/2 (L,C,R,l,r) + LFE ch, ~448.00 kbps avg |Дубляж, R5|
Аудио#3: Russian: 48 kHz/24-bit, DTS-HD MA 5.1, ~3894.00 kbps avg |Одноголосый закадровый, В.Королев|
Аудио#4: Russian: 48 kHz/24-bit, DTS-HD MA 5.1, ~3895.00 kbps avg |Одноголосый закадровый, А.Гаврилов|
Аудио#5:English: 48 kHz/24-bit, Dolby TrueHD 5.1, ~3493.00 kbps avg
Субтитры: Russian (forced), Ukrainian (forced), English (forced), Russian, Ukrainian, English

 

Cкриншоты





Интересные факты

• Аль Пачино рассматривался на роль Джастина Хаммера.
• Фэнн Вонг и Чжан Цзыи рассматривались на роль Румико Фуджикавы.
• Эмили Блант должна была сыграть Черную Вдову, но ей пришлось отказаться от роли из-за занятости на «Путешествиях Гулливера» (2010).
• Геннадий Тартаковский сделал раскадровки к экшн-сценам фильма.
• Микки Рурк посоветовал, чтобы его персонаж частично говорил на русском.
• Роберт Дауни-мл. порекомендовал Джастина Теру Джону Фавро в качестве сценариста фильма.
• Первый сиквел, спродюсированный студией Marvel Studios.
• Первый сиквел Джона Фавро и как режиссера, и как актера.
• Дон Чидл заменил Терренса Ховарда в роли Роуди, после ухудшения отношений между Терренсом и студией Marvel Studios.
• Хлыст (Микки Рурк), как он изображен в фильме, – сочетание двух злодеев Железного человека – Хлыста, владеющего специальным хлыстом, и Кримсон Динамо, носящего броню, контролирующую электричество.
• Сэмюэл Л. Джексон, появившись в первом фильме в роли Ника Фьюри, перед началом съёмок второй части заключил уникальную сделку с Marvel Studio, согласно условиям которой он появится в девяти фильмах в образе Ника.
• Скарлетт Йоханссон настолько сильно хотела получить роль Черной Вдовы, что покрасила волосы в рыжий цвет, еще до того как её утвердили на роль.
• По словам Дона Чидла, он пытался сыграть Роуди по-своему, однако, в конце концов, большую часть образа он скопировал с Терренса Ховарда.
• Для роли Черной Вдовы Скарлетт Йоханссон усиленно тренировалась шесть недель до начала съёмок и продолжала тренировки на протяжении шестимесячного съёмочного периода.
• Сэм Рокуэлл, сыгравший Джастин Хаммера, рассматривался на роль Тони Старка в первой части.
• В комиксе Джастин Хаммер – пожилой человек, однако для фильма его специально «омолодили», чтобы он лучше подходил на роль соперника Тони Старка.
• Дизайн хлыстов Ванко вдохновлен световыми мечами джедаев из «Звездных войн».
• В качестве Черной Вдовы продюсеры рассматирвали Эмили Блант, Джессику Бил, Джессику Альбу, Натали Портман и Анджелину Джоли.
• Йоханссон вдохновлялась игрой Греты Гарбо в «Ниночке» (1939) и Барбары Бах в «Шпион, который меня полюбил».
• В фильме показан атрибут другого героя Marvel Comics - щит героя Капитан Америка.
• В ящике с вещами отца Тони Старка, полученном от Ника Фьюри, можно заметить реально вышедший в послевоенный период выпуск комикса «Капитан Америка».
• Как и в первой части, Тони Старк принимает за кого-то другого Стэна Ли. В этой части он принял его за Ларри Кинга.
• После финальных титров можно заметить атрибут другого персонажа вселенной Marvel - молот Тора.
• Саундтрек к первой части фильма был в основном написан немцем иранского происхождения Рамином Джавади. В сиквеле же Фавро полностью изменил подход к звуковой дорожке. На сей раз туда вошли песни легендарных австралийцев AC/DC, в частности композиции Shoot to thrill, Back in Black, T.N.T, Highway to Hell и Thunderstruck.
• Рурк очень хотел очеловечить своего злодея, чтобы он не был однобоким, поэтому режиссер Джон Фавро «разрешил» Ванко завести в тюремной камере попугая какаду.

Медиаинфо

Общее
Полное имя : D:\Видео HD\Железный человек 1-2 часть [2008-2011 BD-REMUX]\IRON_MAN_2
Формат : Blu-ray movie
Продолжительность : 2 ч. 4 м.
Режим общего битрейта : Переменный
Общий поток : 1 бит/сек
Видео
Идентификатор : 4113 (0x1011)
Идентификатор меню : 1 (0x1)
Формат : AVC
Формат/Информация : Advanced Video Codec
Профиль формата : [email protected]
Параметр CABAC формата : Да
Параметр ReFrames формата : 4 кадра
Идентификатор кодека : 27
Продолжительность : 2 ч. 4 м.
Вид битрейта : Переменный
Битрейт : 37,2 Мбит/сек
Максимальный битрейт : 31,0 Мбит/сек
Ширина : 1920 пикселей
Высота : 1080 пикселей
Соотношение сторон : 16:9
Частота кадров : 23,976 кадра/сек
Цветовое пространство : YUV
Субдискретизация насыщенности : 4:2:0
Битовая глубина : 8 бит
Размер потока : 32,4 Гбайт (83%)
Основные цвета : BT.709-5, BT.1361, IEC 61966-2-4, SMPTE RP177
Характеристики трансфера : BT.709-5, BT.1361
Коэффициенты матрицы : BT.709-5, BT.1361, IEC 61966-2-4 709, SMPTE RP177
Оригинал : 00000.m2ts
Аудио #1
Идентификатор : 4352 (0x1100)
Формат : AC-3
Формат/Информация : Audio Coding 3
Продолжительность : 2 ч. 4 м.
Частота : 48,0 КГц
Метод сжатия : С потерями
Язык : Russian
Аудио #2
Идентификатор : 4353 (0x1101)
Формат : AC-3
Формат/Информация : Audio Coding 3
Продолжительность : 2 ч. 4 м.
Частота : 48,0 КГц
Метод сжатия : С потерями
Язык : Ukrainian
Аудио #3
Идентификатор : 4354 (0x1102)
Формат : DTS
Формат/Информация : Digital Theater Systems
Профиль формата : MA
Продолжительность : 2 ч. 4 м.
Частота : 48,0 КГц
Метод сжатия : С потерями
Язык : Russian
Аудио #4
Идентификатор : 4355 (0x1103)
Формат : DTS
Формат/Информация : Digital Theater Systems
Профиль формата : MA
Продолжительность : 2 ч. 4 м.
Частота : 48,0 КГц
Метод сжатия : С потерями
Язык : Russian
Аудио #5
Идентификатор : 4356 (0x1104)
Формат : DTS
Формат/Информация : Digital Theater Systems
Профиль формата : MA
Продолжительность : 2 ч. 4 м.
Частота : 48,0 КГц
Метод сжатия : С потерями
Язык : English
Аудио #6
Идентификатор : 4357 (0x1105)
Формат : AC-3
Формат/Информация : Audio Coding 3
Продолжительность : 2 ч. 4 м.
Каналы : 2 канала
Частота : 48,0 КГц
Метод сжатия : С потерями
Язык : English
Текст #1
Идентификатор : 4608 (0x1200)
Формат : PGS
Язык : Russian
Текст #2
Идентификатор : 4609 (0x1201)
Формат : PGS
Язык : Ukrainian
Текст #3
Идентификатор : 4610 (0x1202)
Формат : PGS
Язык : Russian
Текст #4
Идентификатор : 4611 (0x1203)
Формат : PGS
Язык : Ukrainian
Текст #5
Идентификатор : 4612 (0x1204)
Формат : PGS
Язык : English
Текст #6
Идентификатор : 4613 (0x1205)
Формат : PGS
Язык : English
Меню
00:00:00.000 : Chapter 1
00:05:04.303 : Chapter 2
00:11:07.583 : Chapter 3
00:17:59.953 : Chapter 4
00:25:53.009 : Chapter 5
00:30:26.783 : Chapter 6
00:37:33.000 : Chapter 7
00:43:59.636 : Chapter 8
00:51:39.346 : Chapter 9
01:00:10.523 : Chapter 10
01:07:01.517 : Chapter 11
01:16:00.764 : Chapter 12
01:21:13.283 : Chapter 13
01:30:33.552 : Chapter 14
01:38:49.339 : Chapter 15
01:45:41.793 : Chapter 16
01:54:17.350 : Chapter 17
02:04:38.887 : Chapter 18
-- Железный человек 3 / Iron Man 3
Год выпуска: 2013
Страна: США
Жанр: фантастика, боевик, триллер, приключения
Продолжительность: 02:11:56
Перевод: Профессиональный (полное дублирование)

Режиссер: Шейн Блэк
В ролях: : Роберт Дауни мл., Гвинет Пэлтроу, Дон Чидл, Гай Пирс, Бен Кингсли, Джеймс Бэдж Дэйл, Ребекка Холл, Тай Симпкинс, Уильям Сэдлер, Джон Фавро
Описание: Когда мир Старка рушится на его глазах по вине неизвестных противников, Тони жаждет найти виновных и свести с ними счеты. Оказавшись в безвыходной ситуации, Старк может рассчитывать только на себя и свою изобретательность, чтобы защитить тех, кто ему дорог. Это становится настоящим испытанием для героя, которому придется не только сражаться с коварным врагом, но и разобраться в себе, чтобы найти ответ на вопрос, который давно его тревожит: что важнее - человек или костюм?


Качество: BDRemux
Формат: BDAV
Видео кодек: MPEG-4 AVC
Аудио кодек: AC3+DTS
Видео: 1920x1080 at 23.976 fps, MPEG-4 AVC, ~29.05 Mbps avg
Аудио#1: Russian: 48 kHz, AC3, 3/2 (L,C,R,l,r) + LFE ch, ~640.00 kbps avg |Дубляж, Blu-ray CEE|
Аудио#2: Ukrainian: 48 kHz, AC3, 3/2 (L,C,R,l,r) + LFE ch, ~448.00 kbps avg |Дубляж, R5|
Аудио#3: Russian: 48 kHz/24-bit, DTS-HD MA 5.1, ~3894.00 kbps avg |Одноголосый закадровый, Ю.Сербин|
Аудио#4: Russian: 48 kHz/24-bit, DTS-HD MA 5.1, ~3895.00 kbps avg |Одноголосый закадровый, А.Гаврилов|
Аудио#5:English: 48 kHz/24-bit, Dolby TrueHD 5.1, ~3493.00 kbps avg
Субтитры: Russian (forced), Ukrainian (forced), English (forced), Russian, Ukrainian, English

 

Скриншоты




Интересные факты

Разрушение особняка Старка снималось в водяном баке на студии EUE/Screen Gems Studios.
• Если считать сцену после титров в фильме «Невероятный Халк» (2008), то это пятый раз, когда Роберт Дауни-мл. играет роль Тони Старка / Железного Человека.
• Железный Человек создан Стэном Ли, Ларри Либиром, Доном Хеком и Джеком Кирби в 1963 году в комиксе Tales of Suspense, # 39.
• Джемма Артертон, Дайан Крюгер и Айла Фишер рассматривались на роль, которую в итоге получила Джессика Честейн. Однако из-за конфликта в графике Честейн впоследствии пришлось отказаться от съемок в картине. Ее заменила Ребекка Холл.
• Джуд Лоу рассматривался на роль Олдрича Киллиана.
• Студия Disney купила у Paramount права на распространение за 115 миллионов долларов. Также в эту сделку попал и фильм «Мстители» (2012). Однако, как и с «Мстителями», одним из условий сделки было то, что студия Disney будет упоминаться только в финальных титрах как дистрибьютор Walt Disney Studios Motion Pictures.
• Первоначально Marvel Studios и Walt Disney Pictures собирались снимать этот фильм в Мичигане из-за налоговых льгот. После того как Северная Каролина гарантировала налоговую скидку в 20 миллионов долларов, продюсеры решили проводить съемки там вместо Мичигана.
• Это первый фильм серии, чьим режиссером не стал Джон Фавро, который также отказался заниматься фильмами «Волшебное королевство» и «Парни из Джерси». Он признался, что получил даже больше удовольствия от игры роли Хогана в третьей части «Железного человека», не занимаясь при этом режиссурой фильма. Как он выразился, он был как «гордый дедушка, который может играть с ребенком, но при этом ему не придется менять подгузники».
• Одна из сцен была снята в помещении компании Epic Games. Этот разработчик видеоигр известен своей франшизой Gears of War.
• В комиксах псевдоним Железный Патриот принадлежал противнику Человека-паука, Зеленому Гоблину. В этом фильме это новый набор брони Железного Человека, на которую нанесена расцветка Капитана Америка. Продюсер Кевин Файги сказал: «Это «Мстители» спасли всех, а не правительство, которое чувствует, что ему нужен свой собственный герой. Это дало нам больший простор, чтобы поработать над персонажем Роуди, показать, как он разрывается между лояльностью к своему другу и своими должностными обязанностями».
• Работа над фильмом была приостановлена 15 августа 2012 года, когда Роберт Дауни-мл. повредил лодыжку во время исполнения трюка.
• Шейн Блэк описал фильм как «триллер Тома Клэнси» с акцентом на реальных злодеях, а не на «двух мужчинах в железных костюмах, сражающихся друг с другом».
• Кевин Файги описал этот фильм так: «Фильм полностью сконцентрирован на Тони Старке. Его лишили всего, и ему придется использовать свой интеллект, чтобы найти выход из этого положения. Он не может позвать Тора, Капитана Америка или Ника Фьюри». Роберт Дауни-мл. описал своего персонажа как находящегося под влиянием мира после событий фильма «Мстители» (2012).
• Энди Лау предлагали роль Радиоактивного Человека, но он отказался в связи с рождением своего первого ребенка. Затем Чэнь Даомин и Ву Сюбовере (Wu Xiubowere) рассматривались на эту роль, но в итоге она досталась Сюэци Вану.
• Роберт Дауни-мл. ранее снимался в фильме Шейна Блэка «Поцелуй навылет» (2005) и положительно отзывался о том, что он пришел на смену Джону Фавро, сказав, что «привлечение в проект Блэка на роль сценариста и режиссера было единственным возможным вариантом, на который Фавро, студия Marvel и я могли подписаться».
• Это первый раз, когда Сэмюэл Л. Джексон не появится в фильме о Железном Человеке как Ник Фьюри.
• Фильм снят отчасти по комиксам серии Extremis Уоррена Эллиса и Sentient Armor Джо Куэсады, а также по оригинальной истории о противнике Железного Человека, Мандарине.
• В отличие от первых двух фильмов серии, в этом компания Industrial Light and Magic уже не работала над видеоэффектами. Вместо нее этим занимались Digital Domain и Weta Digital.
• По словам Кевина Файги, персонаж Мандарина был создан по образу полковника Курца из фильма «Апокалипсис сегодня» (1979). «Он представляет такой род террористов, которые работали на разведывательное ведомство и сходили с ума, становясь одержимыми военными тактиками».
• A. I. M. («Передовые идеи механики») — это научная организация, возглавляемая Олдричем Киллианом. В комиксах это была более простая организация злых ученых-террористов.
• Съемки фильма начались 25 мая 2012 в Уилмингтоне, Северная Каролина. Павильонные съемки прошли на студии Sony Screen Gems Studios. Среди других съемочных локаций: Роули, Северная Каролина и Майами, Флорида.
• Декорации знаменитого особняка Старка были отстроены за 16 недель в Уилмингтоне, Новая Каролина. Вся конструкция была построена на шарнирной платформе, позволяющей наклонять здание под углом 45 градусов, что расширило возможности для съемок сцены атаки на дом.
• Художник по реквизиту Рассел Боббит, который уже работал над предыдущими частями франшизы «Железный человек», вновь присоединился к проекту. Его любимый реквизит — 10 колец Мандарина. Он много общался с ювелирными мастерскими, и в результате удалось разработать 10 уникальных колец с разными камнями, выполненных по индивидуальному рисунку. Весь процесс создания украшений занял несколько месяцев.
• Поп-арт художник Баск из Флориды был нанят специально для создания картин из офиса и спальни Мандарина. Картины должны были отражать сущность злодея. Несмотря на то, что Баск работает в жанре поп-арт, его работы для фильма были вдохновлены комиксами, граффити и панк-рок эстетикой.
• Внимание! Дальнейший список фактов о фильме содержит спойлеры. Будьте осторожны.
• В фильме есть сцена, где 13 человек выпадают из самолета и Железный человек пытается спасти их всех, несмотря на то, что костюм позволяет удержать лишь четверых. При участии профессиональной команды скайдайверов Red Bull, тщательнейшим образом спланированные и выверенные до секунды прыжки осуществлялись в течение 10 дней, всего же в съемках сцены приняли участие 630 парашютистов.

Медиаинфо

Общее
Уникальный идентификатор : 229756242105442861100442680917284457815 (0xACD971520A25F46980FAFE29ACC58D57)
Полное имя : D:\Видео HD\Железный человек 1-2 часть [2008-2011 BD-REMUX]\Железный.человек.3-Iron.Man.3.(2013).BDRemux.[1080p].mkv
Формат : Matroska
Версия формата : Version 2
Размер файла : 30,9 Гбайт
Продолжительность : 2 ч. 10 м.
Режим общего битрейта : Переменный
Общий поток : 33,9 Мбит/сек
Название фильма : Lelya_K for NNM-Club
Дата кодирования : UTC 2013-08-20 20:10:56
Программа кодирования : mkvmerge v5.7.0 ('The Whirlwind') built on Aug 7 2012 14:11:40
Библиотека кодирования : libebml v1.2.3 + libmatroska v1.3.0
Видео
Идентификатор : 1
Формат : AVC
Формат/Информация : Advanced Video Codec
Профиль формата : [email protected]
Параметр CABAC формата : Да
Параметр ReFrames формата : 4 кадра
Параметр GOP формата : M=3, N=12
Идентификатор кодека : V_MPEG4/ISO/AVC
Продолжительность : 2 ч. 10 м.
Вид битрейта : Переменный
Битрейт : 28,2 Мбит/сек
Максимальный битрейт : 30,0 Мбит/сек
Ширина : 1920 пикселей
Высота : 1080 пикселей
Соотношение сторон : 16:9
Частота кадров : 23,976 кадра/сек
Цветовое пространство : YUV
Субдискретизация насыщенности : 4:2:0
Битовая глубина : 8 бит
Тип развёртки : Прогрессивная
Бит/(Пиксели*Кадры) : 0.568
Размер потока : 25,8 Гбайт (83%)
Заголовок : Железный.человек.3-Iron.Man.3.(2013).BDRemux.[1080p]
Язык : English
Default : Да
Forced : Нет
Аудио #1
Идентификатор : 2
Формат : DTS
Формат/Информация : Digital Theater Systems
Профиль формата : MA / Core
Идентификатор кодека : A_DTS
Продолжительность : 2 ч. 10 м.
Вид битрейта : Переменный
Битрейт : 1996 Кбит/сек / 1510 Кбит/сек
Каналы : 6 каналов
Расположение каналов : Front: L C R, Side: L R, LFE
Частота : 48,0 КГц
Битовая глубина : 24 бит
Метод сжатия : Без потерь / Lossy
Заголовок : DTS-HD MA 5.1 / 3896 kbps (Disney / Buena Vista)
Язык : Russian
Default : Да
Forced : Нет
Аудио #2
Идентификатор : 3
Формат : AC-3
Формат/Информация : Audio Coding 3
Расширение режима : CM (complete main)
Параметр Endianness формата : Big
Идентификатор кодека : A_AC3
Продолжительность : 2 ч. 10 м.
Вид битрейта : Постоянный
Битрейт : 640 Кбит/сек
Каналы : 6 каналов
Расположение каналов : Front: L C R, Side: L R, LFE
Частота : 48,0 КГц
Битовая глубина : 16 бит
Метод сжатия : С потерями
Размер потока : 598 Мбайт (2%)
Заголовок : AC3 5.1 / 640 kbps (Blu-Ray EUR)
Язык : Russian
Default : Нет
Forced : Нет
Аудио #3
Идентификатор : 4
Формат : AC-3
Формат/Информация : Audio Coding 3
Расширение режима : CM (complete main)
Параметр Endianness формата : Big
Идентификатор кодека : A_AC3
Продолжительность : 2 ч. 10 м.
Вид битрейта : Постоянный
Битрейт : 192 Кбит/сек
Каналы : 2 канала
Расположение каналов : Front: L R
Частота : 48,0 КГц
Битовая глубина : 16 бит
Метод сжатия : С потерями
Размер потока : 179 Мбайт (1%)
Заголовок : AC3 2.0 / 192 kbps (iTunes)
Язык : Ukrainian
Default : Нет
Forced : Нет
Аудио #4
Идентификатор : 5
Формат : DTS
Формат/Информация : Digital Theater Systems
Профиль формата : MA / Core
Идентификатор кодека : A_DTS
Продолжительность : 2 ч. 10 м.
Вид битрейта : Переменный
Битрейт : 1606 Кбит/сек / 1510 Кбит/сек
Каналы : 8 каналов / 6 каналов
Расположение каналов : Front: L C R, Side: L R, Back: L R, LFE / Front: L C R, Side: L R, LFE
Частота : 48,0 КГц
Битовая глубина : 24 бит
Метод сжатия : Без потерь / Lossy
Заголовок : DTS-HD MA 7.1 / 4845 kbps
Язык : English
Default : Нет
Forced : Нет
Аудио #5
Идентификатор : 6
Формат : AC-3
Формат/Информация : Audio Coding 3
Профиль формата : Dolby Digital
Расширение режима : CM (complete main)
Параметр Endianness формата : Big
Идентификатор кодека : A_AC3
Продолжительность : 2 ч. 10 м.
Вид битрейта : Постоянный
Битрейт : 320 Кбит/сек
Каналы : 2 канала
Расположение каналов : Front: L R
Частота : 48,0 КГц
Битовая глубина : 16 бит
Метод сжатия : С потерями
Размер потока : 299 Мбайт (1%)
Заголовок : Descriptive
Язык : English
Default : Нет
Forced : Нет
Аудио #6
Идентификатор : 7
Формат : AC-3
Формат/Информация : Audio Coding 3
Расширение режима : CM (complete main)
Параметр Endianness формата : Big
Идентификатор кодека : A_AC3
Продолжительность : 2 ч. 10 м.
Вид битрейта : Постоянный
Битрейт : 192 Кбит/сек
Каналы : 2 канала
Расположение каналов : Front: L R
Частота : 48,0 КГц
Битовая глубина : 16 бит
Метод сжатия : С потерями
Размер потока : 179 Мбайт (1%)
Заголовок : Commentary
Язык : English
Default : Нет
Forced : Нет
Текст #1
Идентификатор : 8
Формат : UTF-8
Идентификатор кодека : S_TEXT/UTF8
Идентификатор кодека/Информация : UTF-8 Plain Text
Заголовок : Forced
Язык : Russian
Default : Да
Forced : Нет
Текст #2
Идентификатор : 9
Формат : UTF-8
Идентификатор кодека : S_TEXT/UTF8
Идентификатор кодека/Информация : UTF-8 Plain Text
Заголовок : Full
Язык : Russian
Default : Нет
Forced : Нет
Текст #3
Идентификатор : 10
Формат : UTF-8
Идентификатор кодека : S_TEXT/UTF8
Идентификатор кодека/Информация : UTF-8 Plain Text
Заголовок : Commentary
Язык : Russian
Default : Нет
Forced : Нет
Текст #4
Идентификатор : 11
Формат : UTF-8
Идентификатор кодека : S_TEXT/UTF8
Идентификатор кодека/Информация : UTF-8 Plain Text
Заголовок : Forced
Язык : Ukrainian
Default : Нет
Forced : Нет
Текст #5
Идентификатор : 12
Формат : UTF-8
Идентификатор кодека : S_TEXT/UTF8
Идентификатор кодека/Информация : UTF-8 Plain Text
Заголовок : Full
Язык : Ukrainian
Default : Нет
Forced : Нет
Текст #6
Идентификатор : 13
Формат : UTF-8
Идентификатор кодека : S_TEXT/UTF8
Идентификатор кодека/Информация : UTF-8 Plain Text
Заголовок : Full
Язык : English
Default : Нет
Forced : Нет
Текст #7
Идентификатор : 14
Формат : UTF-8
Идентификатор кодека : S_TEXT/UTF8
Идентификатор кодека/Информация : UTF-8 Plain Text
Заголовок : SDH
Язык : English
Default : Нет
Forced : Нет
Меню
00:00:00.000 : en:Chapter 1
00:04:52.750 : en:Chapter 2
00:07:55.433 : en:Chapter 3
00:12:12.440 : en:Chapter 4
00:19:04.101 : en:Chapter 5
00:23:47.884 : en:Chapter 6
00:29:47.702 : en:Chapter 7
00:39:46.384 : en:Chapter 8
00:45:56.044 : en:Chapter 9
00:59:19.639 : en:Chapter 10
01:01:56.921 : en:Chapter 11
01:09:24.451 : en:Chapter 12
01:18:41.508 : en:Chapter 13
01:23:52.944 : en:Chapter 14
01:37:55.995 : en:Chapter 15
01:56:18.304 : en:Chapter 16
01:59:38.754 : en:Chapter 17
--


Последний раз редактировалось: DMiTRY (2013-09-27 00:24), всего редактировалось 1 раз

Создавать темы 10-Сен-2013 15:10

[Профиль]  [ЛС] 

aziko_84

Стаж: 6 лет 9 месяцев

Сообщений: 81

Симпатии: 5

DMiTRY, Спасибо за этот классный релиз.
попробую качать,если за неделю скачаетса хотя бы 5% то буду дальше качать.

Создавать темы 10-Сен-2013 15:22

[Профиль]  [ЛС] 

Robot-IX

Стаж: 5 лет 6 месяцев

Сообщений: 223

Симпатии: 9

Вот это Мега железо...! )) +

Создавать темы 10-Сен-2013 16:10

[Профиль]  [ЛС] 

PIXEL 100

Стаж: 4 года 5 месяцев

Сообщений: 49

Симпатии: 8

Да вот это Мега Суппер стальной релиз оболдеть спасиба DMiTRY, вау

Создавать темы 10-Сен-2013 16:55

[Профиль]  [ЛС] 

GIGABYTE158

Стаж: 5 лет 4 месяца

Сообщений: 71

Симпатии: 13

Афигеть DMiTRY обязательно скачаю только память освабожу,

Создавать темы 10-Сен-2013 19:38

[Профиль]  [ЛС] 

Torrent

Стаж: 4 года 8 месяцев

Сообщений: 28

Симпатии: 1

мощььь !!!

Создавать темы 10-Сен-2013 23:42

[Профиль]  [ЛС] 

Дмитриев

Стаж: 7 лет 4 месяца

Сообщений: 139

Симпатии: 12

DMiTRY


Этот релиз просто бомба :bb: Спасибо за трио az


Последний раз редактировалось: Дмитриев (2013-09-12 01:02), всего редактировалось 2 раз(а)

Создавать темы 11-Сен-2013 17:24

[Профиль]  [ЛС] 

DMiTRY ®

Стаж: 6 лет 5 месяцев

Сообщений: 649

Симпатии: 28

Всем спасибо,качайте на здоровье,планирую такие релизы выкладывать почаще,лишь бы вы качали их)

Создавать темы 11-Сен-2013 18:09

[Профиль]  [ЛС] 

DMiTRY ®

Стаж: 6 лет 5 месяцев

Сообщений: 649

Симпатии: 28

Уважаемая администрация,нельзя этот релиз отправить в "прилепленные темы?"

Создавать темы 11-Сен-2013 18:17

[Профиль]  [ЛС] 

Yaha

Стаж: 4 года 7 месяцев

Сообщений: 11

DMiTRY, спасибо за релиз!
Пара наблюдений, если позволите:
1. Третья дорожка во второй части это Сербин, а не Королев..
2. Дорожки к третьей части идентичны ко второй.. этого не может быть, насколько мне известно, ремукс с авторскими дорожками на третью часть ожидается только в ноябре.. да и дубляж официальный у него пока айтюнский в 384 кило, если я не ошибаюсь..

Создавать темы 11-Сен-2013 22:02

[Профиль]  [ЛС] 

DMiTRY ®

Стаж: 6 лет 5 месяцев

Сообщений: 649

Симпатии: 28

DMiTRY, спасибо за релиз!
Пара наблюдений, если позволите:
1. Третья дорожка во второй части это Сербин, а не Королев..
2. Дорожки к третьей части идентичны ко второй.. этого не может быть, насколько мне известно, ремукс с авторскими дорожками на третью часть ожидается только в ноябре.. да и дубляж официальный у него пока айтюнский в 384 кило, если я не ошибаюсь..
конечно,исправление своих ошибок всегда полезны.. По поводу 2 части исправим конечно,а вот про 3 часть,описания было взято именно указанного вами места на HD-клабе.

Создавать темы 11-Сен-2013 22:25

[Профиль]  [ЛС] 

Yaha

Стаж: 4 года 7 месяцев

Сообщений: 11

а вот про 3 часть,описания было взято именно указанного вами места на HD-клабе.
Хмм.. про ремукс на хдклабе я не припомню, чтобы давал ссылку.. ща посмотрел, имеющийся там ремукс имеет такие дорожки:
Аудио#1: Russian: 48 kHz/24-bit, DTS-HD MA 5.1, ~3897.00 kbps avg |Дубляж, Disney / Buena Vista|
Аудио#2: Ukrainian: 48 kHz, AC3, 2/0 (L,R) ch, ~192.00 kbps avg |Дубляж, iTunes Russia|
Аудио#3: English: 48 kHz/24-bit, DTS-HD MA 7.1, ~4845.00 kbps avg
Аудио#4: English: 48 kHz, AC3, 2/0 (L,R) ch, ~320.00 kbps avg |Descriptive|
Аудио#5: English: 48 kHz, AC3, 2/0 (L,R) ch, ~192.00 kbps avg |Commentary with Drew Pearce & Shane Black|
А по размеру ваш файл совпадает с тем, что выложили недавно на сторенте и который имеет следующие дорожки:
Аудио#1: DTS-HD MA 5.1, 3896 kbps, 48 kHz | Русский (дублированный) Disney / Buena Vista
Аудио#2: AC3 5.1, 640 kbps, 48 kHz | Русский (дублированный) Blu-Ray EUR
Аудио#3: AC3 2.0, 192 kbps, 48 kHz | Украинский (дублированный) iTunes Russia
Аудио#4: DTS-HD MA 7.1, 4845 kbps, 48 kHz | Английский (оригинал)
Аудио#5: AC3 2.0, 320 kbps, 48 kHz | Английский (Descriptive)
Аудио#6: AC3 2.0, 192 kbps, 48 kHz | Английский (Commentary)
Может, все же просто посмотреть по МедиаИнфо, что к чему..? )

Создавать темы 11-Сен-2013 23:23

[Профиль]  [ЛС] 

DMiTRY ®

Стаж: 6 лет 5 месяцев

Сообщений: 649

Симпатии: 28

а вот про 3 часть,описания было взято именно указанного вами места на HD-клабе.
Хмм.. про ремукс на хдклабе я не припомню, чтобы давал ссылку.. ща посмотрел, имеющийся там ремукс имеет такие дорожки:
Аудио#1: Russian: 48 kHz/24-bit, DTS-HD MA 5.1, ~3897.00 kbps avg |Дубляж, Disney / Buena Vista|
Аудио#2: Ukrainian: 48 kHz, AC3, 2/0 (L,R) ch, ~192.00 kbps avg |Дубляж, iTunes Russia|
Аудио#3: English: 48 kHz/24-bit, DTS-HD MA 7.1, ~4845.00 kbps avg
Аудио#4: English: 48 kHz, AC3, 2/0 (L,R) ch, ~320.00 kbps avg |Descriptive|
Аудио#5: English: 48 kHz, AC3, 2/0 (L,R) ch, ~192.00 kbps avg |Commentary with Drew Pearce & Shane Black|
А по размеру ваш файл совпадает с тем, что выложили недавно на сторенте и который имеет следующие дорожки:
Аудио#1: DTS-HD MA 5.1, 3896 kbps, 48 kHz | Русский (дублированный) Disney / Buena Vista
Аудио#2: AC3 5.1, 640 kbps, 48 kHz | Русский (дублированный) Blu-Ray EUR
Аудио#3: AC3 2.0, 192 kbps, 48 kHz | Украинский (дублированный) iTunes Russia
Аудио#4: DTS-HD MA 7.1, 4845 kbps, 48 kHz | Английский (оригинал)
Аудио#5: AC3 2.0, 320 kbps, 48 kHz | Английский (Descriptive)
Аудио#6: AC3 2.0, 192 kbps, 48 kHz | Английский (Commentary)
Может, все же просто посмотреть по МедиаИнфо, что к чему..? )
действительно,исправлю по медиаинфо)

Создавать темы 11-Сен-2013 23:27

[Профиль]  [ЛС] 

aziko_84

Стаж: 6 лет 9 месяцев

Сообщений: 81

Симпатии: 5

Sonatrek Спасибо за скорость))

Создавать темы 12-Сен-2013 16:47

[Профиль]  [ЛС] 

Lithium

Стаж: 7 лет 1 месяц

Сообщений: 35

Sonatrek Спасибо за скорость))
+

Создавать темы 13-Сен-2013 00:53

[Профиль]  [ЛС] 
Показать сообщения:    
Ответить на тему

Текущее время: 19-Окт 10:42

Часовой пояс: UTC + 5



Вы не можете начинать темы
Вы не можете отвечать на сообщения
Вы не можете редактировать свои сообщения
Вы не можете удалять свои сообщения
Вы не можете голосовать в опросах
Вы не можете прикреплять файлы к сообщениям
Вы не можете скачивать файлы