Уличные танцы 3: Все звезды / All Stars (Бен Грегор) [2013 г., комедия, семейный, BDRip] [ Лицензия]

Страницы :  1, 2  След.

Ответить на тему
 

Imperiya ®

Стаж: 6 лет 7 месяцев

Сообщений: 275

Симпатии: 4

Уличные танцы 3: Все звезды / All Stars«Шесть френдов. Одна команда. Грандиозное шоу. Победа без вариантов!»
-Год выпуска: 2013-Страна: Великобритания-Жанр: комедия, семейный-Продолжительность: 01:46:00-Перевод: Дублированный Лицензия-Режиссер: Бен Грегор-В ролях: Тео Стивенсон, Акай Осей-Мэнсфилд, Флер Хаудейк, Доминик Герман-Дэй, Амелия Кларксон, Гамал Тосифа, Эшли Дженсен, Хью Дэннис, Кевин Бишоп, Эшли Уолтерс-Описание: Герой фильма, энергичный и бойкий Этан, объединяется со скромным профессиональным стритдансером Джейденом для участия в очередном чемпионате по уличным танцам. Только своей победой ребята смогут спасти свой молодежный клуб от закрытия. И они сделают это, во что бы то ни стало…-Доп. информация:
Премьера (мир): 3 мая 2013
Премьера (РФ): 6 июня 2013, «Парадиз» 3D
Релиз на DVD: 17 сентября 2013, «Парадиз / Активижен», ...
Релиз на Blu-Ray: 17 сентября 2013, «Парадиз / Активижен», ...-Качество: BDRip
Формат: AVI
Видео кодек: XviD
Аудио кодек: AC3
Видео: XviD, 1572 Кбит/с, 720x384
Аудио: AC3, 6 ch, 448 Кбит/с

Media Info

D:\Kino\internet filmi\fvoy\Ulichnye.tancy.3.2013.D.BDRip.avi
General
Complete name : D:\Kino\internet filmi\fvoy\Ulichnye.tancy.3.2013.D.BDRip.avi
Format : AVI
Format/Info : Audio Video Interleave
File size : 1.46 GiB
Duration : 1h 42mn
Overall bit rate : 2 029 Kbps
Writing application : VirtualDubModRus 1.5.10.2 (build 2542/release)
Writing library : VirtualDubMod build 2542/release
Video #0
ID : 0
Format : MPEG-4 Visual
Format profile : Advanced [email protected]
Format settings, BVOP : 1
Format settings, QPel : No
Format settings, GMC : No warppoints
Format settings, Matrix : Custom
Codec ID : XVID
Codec ID/Hint : XviD
Duration : 1h 42mn
Bit rate : 1 572 Kbps
Width : 720 pixels
Height : 384 pixels
Display aspect ratio : 1.85:1
Frame rate : 23.976 fps
Color space : YUV
Chroma subsampling : 4:2:0
Bit depth : 8 bits
Scan type : Progressive
Compression mode : Lossy
Bits/(Pixel*Frame) : 0.237
Stream size : 1.13 GiB (77%)
Writing library : XviD 73
Audio #1
ID : 1
Format : AC-3
Format/Info : Audio Coding 3
Mode extension : CM (complete main)
Format settings, Endianness : Big
Codec ID : 2000
Duration : 1h 42mn
Bit rate mode : Constant
Bit rate : 448 Kbps
Channel(s) : 6 channels
Channel positions : Front: L C R, Side: L R, LFE
Sampling rate : 48.0 KHz
Bit depth : 16 bits
Compression mode : Lossy
Stream size : 329 MiB (22%)
Alignment : Split accross interleaves
Interleave, duration : 42 ms (1.00 video frame)
Interleave, preload duration : 500 ms

Скриншоты



Последний раз редактировалось: Imperiya (2013-09-11 17:36), всего редактировалось 2 раз(а)

Создавать темы 11-Сен-2013 16:38

[Профиль]  [ЛС] 

Дмитриев

Стаж: 7 лет 5 месяцев

Сообщений: 139

Симпатии: 12

Imperiya О спасибо!

Создавать темы 11-Сен-2013 17:07

[Профиль]  [ЛС] 

Imperiya ®

Стаж: 6 лет 7 месяцев

Сообщений: 275

Симпатии: 4

Дмитриев, не зачто(y)

Создавать темы 11-Сен-2013 17:35

[Профиль]  [ЛС] 

Atemu

Стаж: 4 года 10 месяцев

Сообщений: 18

Герой фильма, энергичный и бойкий Этан, объединяется со скромным профессиональным стритдансером Джейденом
стритденсер еще может быть и скромным)

Создавать темы 11-Сен-2013 18:27

[Профиль]  [ЛС] 

AeRoNHanD

Стаж: 5 лет 1 месяц

Сообщений: 198

Симпатии: 3

Это кино про детей что ли????

Создавать темы 11-Сен-2013 18:53

[Профиль]  [ЛС] 

Imperiya ®

Стаж: 6 лет 7 месяцев

Сообщений: 275

Симпатии: 4

AeRoNHanD, бро там же написано Все звезды

Создавать темы 12-Сен-2013 09:30

[Профиль]  [ЛС] 

Imperiya ®

Стаж: 6 лет 7 месяцев

Сообщений: 275

Симпатии: 4

которий 1-част 2-частах игравших актёри с этим 3 том часте тоже играют

Создавать темы 12-Сен-2013 09:31

[Профиль]  [ЛС] 

Atemu

Стаж: 4 года 10 месяцев

Сообщений: 18

AeRoNHanD, бро там же написано Все звезды
фильм про детей

Создавать темы 12-Сен-2013 11:49

[Профиль]  [ЛС] 

t1man

Стаж: 5 лет 1 месяц

Сообщений: 75

1ые и 2 ые части были интересными посмотрим как этот,

Создавать темы 12-Сен-2013 14:14

[Профиль]  [ЛС] 

t1man

Стаж: 5 лет 1 месяц

Сообщений: 75

Автору спасибо за лицуху

Создавать темы 12-Сен-2013 14:15

[Профиль]  [ЛС] 

Don_OmaR

Стаж: 5 лет 8 месяцев

Сообщений: 90

Симпатии: 5

Жанр: комедия, семейный
Жанры Не очень соответствует фильму.

Создавать темы 12-Сен-2013 21:53

[Профиль]  [ЛС] 

javohir_2011

Стаж: 5 лет 10 месяцев

Сообщений: 11

Imperiya это Все Звёзды Имья их команды я скачал с [спам].uz уже 2 неделки прошло фильм ваще классно)

Создавать темы 18-Сен-2013 15:48

[Профиль]  [ЛС] 

Don_OmaR

Стаж: 5 лет 8 месяцев

Сообщений: 90

Симпатии: 5

Фильм просто аФфИгенный=))) посмотрел поднялось прям настроение.+")

Создавать темы 19-Сен-2013 20:41

[Профиль]  [ЛС] 

kricker13

Стаж: 6 лет 10 месяцев

Сообщений: 29

Симпатии: 6

НЕТ СЛОВ ta ta ta

Создавать темы 22-Сен-2013 15:59

[Профиль]  [ЛС] 

temurid

Стаж: 5 лет 7 месяцев

Сообщений: 60

Симпатии: 1

уххха фильм класс маладцы ребята!!!! Советую посмотреть всем!!!

Создавать темы 25-Сен-2013 17:09

[Профиль]  [ЛС] 
Показать сообщения:    
Ответить на тему

Текущее время: 24-Ноя 18:07

Часовой пояс: UTC + 5



Вы не можете начинать темы
Вы не можете отвечать на сообщения
Вы не можете редактировать свои сообщения
Вы не можете удалять свои сообщения
Вы не можете голосовать в опросах
Вы не можете прикреплять файлы к сообщениям
Вы не можете скачивать файлы