Армагеддон / Armageddon (Майкл Бэй) [1998 г., фантастика, боевик, триллер, приключения, ..., BDRip]

Ответить на тему
 

Djoni111095 ®

Стаж: 5 лет

Сообщений: 57

Симпатии: 11

--Армагеддон / Armageddon-- Год выпуска: 1998
Страна: США
Жанр: фантастика, боевик, триллер, приключения, ...
слоган: «Во имя любви. Во имя чести. Во имя человечества.»
Продолжительность: 02:30:50
Перевод: Профессиональный (полное дублирование)--Режиссер: Майкл Бэй
сценарий: Джонатан Хенсли, Джей Джей Абрамс, Тони Гилрой, ...
продюсер: Майкл Бэй, Джерри Брукхаймер, Гэйл Энн Хёрд, ...
оператор: Джон Шварцман
композитор: Тревор Рэбин
художник: Майкл Уайт, Джофф Хаббард, Лоуренс А. Хуббс, ...
монтаж: Марк Голдблатт, Крис Лебензон, Глен Скэнтлебери--В ролях: Брюс Уиллис, Бен Аффлек, Лив Тайлер, Уилл Пэттон, Билли Боб Торнтон, Стив Бушеми, Уильям Фихтнер, Оуэн Уилсон, Майкл Кларк Дункан, Петер Стормаре....- -бюджет: $140 000 000
сборы в США: $201 578 182
сборы в мире: + $352 131 606 = $553 709 788
зрители: 43 млн, 8.9 млн, 5.05 млн, ...
возраст: зрителям, достигшим 12 лет- -Описание: Тень гигантского астероида легла на Землю. До рокового столкновения остаются считанные дни. Наступает Армагеддон, трагический финал мировой истории. Чтобы предотвратить катастрофу, необходимо чудо — или совместные усилия лучших из лучших вместе с технологической мощью всего созданного человеком. Сможет ли горстка людей противостоять вселенской стихии?..
-- Качество: BDRip 720p
Формат: MKV
Видео кодек: AVC
Аудио кодек: AC3
Видео: 1280x534, 1964 Kbps, 23,976 fps
Аудио: 48000 Hz, 6 ch, 448 Kbps--

media info

General
Unique ID : 216739456279175692102112769245917179992 (0xA30E803AD70AB59BBB1CCEEC7DD37058)
Complete name : D:\Армагеддон by Djoni.mkv
Format : Matroska
Format version : Version 4 / Version 2
File size : 2.53 GiB
Duration : 2h 30mn
Overall bit rate mode : Variable
Overall bit rate : 2 405 Kbps
Movie name : Rip by Romeo [NOLIMITS-TEAM.RU]
Encoded date : UTC 2013-09-03 12:40:51
Writing application : mkvmerge v6.0.0 ('Coming Up For Air') built on Jan 20 2013 09:52:00
Writing library : libebml v1.3.0 + libmatroska v1.4.0
Video
ID : 1
Format : AVC
Format/Info : Advanced Video Codec
Format profile : [email protected]
Format settings, CABAC : Yes
Format settings, ReFrames : 3 frames
Codec ID : V_MPEG4/ISO/AVC
Duration : 2h 30mn
Bit rate mode : Variable
Bit rate : 1 964 Kbps
Maximum bit rate : 17.5 Mbps
Width : 1 280 pixels
Height : 534 pixels
Display aspect ratio : 2.35:1
Original display aspect ratio : 2.40:1
Frame rate : 23.976 fps
Color space : YUV
Chroma subsampling : 4:2:0
Bit depth : 8 bits
Scan type : Progressive
Bits/(Pixel*Frame) : 0.120
Stream size : 2.01 GiB (79%)
Writing library : x264 core 104 r1713 c276662
Encoding settings : cabac=1 / ref=1 / deblock=1:0:0 / analyse=0x3:0x3 / me=dia / subme=1 / psy=1 / psy_rd=0.00:0.00 / mixed_ref=0 / me_range=16 / chroma_me=1 / trellis=0 / 8x8dct=1 / cqm=0 / deadzone=21,11 / fast_pskip=1 / chroma_qp_offset=0 / threads=6 / sliced_threads=0 / slices=4 / nr=0 / decimate=1 / interlaced=0 / constrained_intra=0 / bframes=3 / b_pyramid=1 / b_adapt=1 / b_bias=0 / direct=1 / weightb=1 / open_gop=0 / weightp=0 / keyint=24 / keyint_min=1 / scenecut=40 / intra_refresh=0 / rc_lookahead=0 / rc=abr / mbtree=0 / bitrate=1964 / ratetol=1.0 / qcomp=0.60 / qpmin=0 / qpmax=51 / qpstep=4 / vbv_maxrate=17500 / vbv_bufsize=14500 / ip_ratio=1.10 / pb_ratio=1.10 / aq=1:1.00 / nal_hrd=vbr
Language : English
Default : Yes
Forced : No
Audio
ID : 2
Format : AC-3
Format/Info : Audio Coding 3
Mode extension : CM (complete main)
Codec ID : A_AC3
Duration : 2h 30mn
Bit rate mode : Constant
Bit rate : 448 Kbps
Channel(s) : 6 channels
Channel positions : Front: L C R, Side: L R, LFE
Sampling rate : 48.0 KHz
Bit depth : 16 bits
Compression mode : Lossy
Stream size : 483 MiB (19%)
Language : Russian
Default : Yes
Forced : No

Знаете ли вы, что...

Фильм как один из худших фильмов года был выдвинут сразу на семь номинаций «Золотая малина» (анти-Оскар). Досталась же ленте только одна номинация — её получил Брюс Уиллис за самую худшую актёрскую работу в кино в 1998 году.-Музыкальную тему к фильму — «I Don’t Want to Miss a Thing» — исполнил отец Лив Тайлер, Стив, в составе команды Aerosmith. Эта песня в течение четырёх недель удерживала первое место в Billboard Hot 100.-Многие жители СНГ были оскорблены тем, каким был показан российский космонавт-полковник Лев Андропов (небрит, нетрезв, семитской внешности в меховой шапке и телогрейке, бьёт по приборам[4], открывает кран подачи топлива ломом, взрывает космическую станцию «Мир»)[4] — правда, в конечном итоге именно он своими действиями спасает всех американских космонавтов, ударив по компьютеру незаводящегося «Шаттла» разводным ключом.-Фильм используется NASA в учебных целях для тренировки менеджеров. Им предлагается найти как можно больше технических ошибок, которых всего насчитано 168.-Во время запуска «Шаттлов» в фильме твердотопливные ускорители отделяются одновременно с внешним топливным баком — на самом деле этот бак должен ещё семь минут питать топливом 3 маршевых кислородно-водородных двигателя, которые установлены на самом «Шаттле».-По мнению авторов фильма, топливом «Шаттлов» является кислород, заправляться которым они прилетели на российскую станцию «Мир». Строго говоря топливом является и кислород (окислитель), и керосин или водород (горючее), так что формально сказано правильно. Но жидкого кислорода на «Мире» никогда не было и быть не могло. Да и хранить его долго на орбите технически крайне сложно, тем более — в таких количествах, чтобы заправлять «Шаттлы».-Отрывки из первых сцен фильма, где показано, как мелкие метеориты падают на Нью-Йорк, а также панорама разрушенного Парижа использованы в фильме «Impostor» для сцен, в которых показан обстрел Земли из космоса инопланетянами (метеориты «превращаются» в ракеты).-Астронавты держатся на астероиде за счёт каких-то «двигателей малой тяги», которые в фильме показаны в виде пропеллеров, которые не могут работать в безвоздушном пространстве. Всё буровое оборудование также снабжено такими же двигателями.-Гравитация на астероиде почти земная, чего быть не может из-за его малой массы.
На астероиде не может быть пригодной для дыхания атмосферы. Но атмосфера иногда появляется: бурильщики почти всё время бурят в скафандрах со шлемами. Но в одном из кадров Брюс Уиллис находится рядом с буром с открытым щитком шлема.[4] Кроме того, после крушения второго шатла, в нём вполне нормально горят остатки оборудования, чего не может быть при отсутствии атмосферы.-В одной из сцен фильма снялся сам Майкл Бэй (момент когда NASA даёт команду использовать телескоп Хаббл).

Награды


Оскар, 1999 год
Номинации (4):
Лучший звук
Лучший монтаж звука
Лучшие визуальные эффекты
Лучшая песня — «I Don't Want To Miss A Thing»-
Премия канала «MTV», 1999 год
Победитель (2):
Лучшая песня — «I Don't Want To Miss A Thing»
Лучшая экшн-сцена
Номинации (4):
Лучший фильм
Лучшая мужская роль (Бен Аффлек)
Лучшая женская роль (Лив Тайлер)
Лучший экранный дуэт (Лив Тайлер, Бен Аффлек)-
Золотая малина, 1999 год
Победитель (1):
Худшая мужская роль (Брюс Уиллис)
Номинации (6):
Худший фильм
Худшая женская роль второго плана (Лив Тайлер)
Худший режиссер (Майкл Бэй)
Худший сценарий
Худшая песня — «I Don't Want to Miss a Thing»
Худшая экранная пара — «Лив Тайлер и Бен Аффлек»-
атурн, 1999 год
Победитель (2):
Лучший научно-фантастический фильм
Лучший режиссер (Майкл Бэй)
Номинации (5):
Лучший актер (Брюс Уиллис)
Лучший актер второго плана (Бен Аффлек)
Лучшие костюмы
Лучшие спецэффекты
Лучшая музыка

Скриншоты



Последний раз редактировалось: Djoni111095 (2013-09-12 00:36), всего редактировалось 2 раз(а)

Создавать темы 11-Сен-2013 21:21

[Профиль]  [ЛС] 

GIGABYTE158

Стаж: 5 лет 5 месяцев

Сообщений: 71

Симпатии: 13

уже скачал ae

Создавать темы 12-Сен-2013 12:15

[Профиль]  [ЛС] 

VAIO

Стаж: 5 лет 10 месяцев

Сообщений: 1568

Симпатии: 1399

Хороший фильмец, Советую ! Спасибо за релизчиг, скачаю позже.

Создавать темы 12-Сен-2013 17:53

[Профиль]  [ЛС] 

Az1

Стаж: 5 лет 1 месяц

Сообщений: 62

Шикарно оформил!
Спасибо за уделенное релизу время.

Создавать темы 10-Окт-2013 02:21

[Профиль]  [ЛС] 
Показать сообщения:    
Ответить на тему

Текущее время: 20-Ноя 09:14

Часовой пояс: UTC + 5



Вы не можете начинать темы
Вы не можете отвечать на сообщения
Вы не можете редактировать свои сообщения
Вы не можете удалять свои сообщения
Вы не можете голосовать в опросах
Вы не можете прикреплять файлы к сообщениям
Вы не можете скачивать файлы