Форсаж 6 / Fast & Furious 6 (Джастин Лин) [2013 г., боевик, триллер, драма, криминал, BDRip 1080p] Extended [Лицензия/iTunes]

Ответить на тему
 

CoolDX ®

Стаж: 6 лет 9 месяцев

Сообщений: 196

Симпатии: 59

Форсаж 6 / Fast & Furious 6 [EXTENDED]
Год выхода: 2013
Жанр: боевик, триллер, драма, криминал
Выпущено: США / Universal Pictures, Relativity Media, Original Film
Продолжительность: 02:11:02
Перевод: Дублированный (iTunes Russia)-Режиссер: Джастин Лин-В ролях: Вин Дизель, Дуэйн Джонсон, Пол Уокер, Люк Эванс, Мишель Родригес, Джина Карано, Джордана Брюстер, Эльса Патаки, Гал Гадот, Тайрез Гибсон, Cанг Кенг, Лудакрис, Джо Таслим, Пол Блэкуэлл-Описание: После того как Доминик и Брайн побывали в Рио, где они ограбили и свергли империю вора в законе, их команда получила 100 миллионов, и наши герои оказались разбросаны по всему миру. Но их привычка вечно жить в бегах не даёт им покоя. Между тем, Хоббс отслеживал организацию смертельно опасных наёмников-водителей по двенадцати странам. Единственный способ остановить эту криминальную группу — это превзойти их на улицах, поэтому Хоббс просит Дома собрать его элитную команду в Лондоне. За это он обещает полное помилование для Доминика и его друзей, чтобы они смогли наконец вернуться домой к своей семье.-IMDB рейтинг: 7.3/10 (134,391 голосов)
Кинопоиск рейтинг: 7.070 (44,385 голосов)-Формат: MKV (H.264)
Качество: BDRip 1080p
Видео: 11700 Kb/s, 1920x800 (2.40:1), 23.976 fps
Аудио: Russian: AC3, 384 kb/s (6 ch) / English: AC3, 384 kb/s (6 ch)
Субтитры: Русские (Forced/Full), Английские-

Дополнительная информация о релизе

На непереведенные места расширенной версии – русские форсированные субтитры.
-Релиз подготовлен при поддержке проекта CoolDX-

Media Info

General
Unique ID : 173505370461140838490703185302810734309 (0x8287EB39A49678FCA024B1A022772EE5)
Complete name : C:\Fast.and.Furious.6.2013.DUAL.Extended.BDRip.1080p.CoolDX.mkv
Format : Matroska
Format version : Version 2
File size : 11.7 GiB
Duration : 2h 11mn
Overall bit rate mode : Variable
Overall bit rate : 12.8 Mbps
Movie name : Fast and Furious 6 (2013) Extended | Release from CoolDX
Encoded date : UTC 2013-09-11 13:36:57
Writing application : mkvmerge v4.2.0 ('No Talking') сборка от Jul 28 2010 18:38:23
Writing library : libebml v1.0.0 + libmatroska v1.0.0
Video #1
ID : 1
Format : AVC
Format/Info : Advanced Video Codec
Format profile : [email protected]
Format settings, CABAC : No
Format settings, ReFrames : 1 frame
Format settings, GOP : M=1, N=12
Muxing mode : Header stripping
Codec ID : V_MPEG4/ISO/AVC
Duration : 2h 11mn
Bit rate mode : Variable
Bit rate : 11.7 Mbps
Maximum bit rate : 18.0 Mbps
Width : 1 920 pixels
Height : 800 pixels
Display aspect ratio : 2.40:1
Frame rate mode : Constant
Frame rate : 23.976 fps
Original frame rate : 24.000 fps
Color space : YUV
Chroma subsampling : 4:2:0
Bit depth : 8 bits
Scan type : Progressive
Bits/(Pixel*Frame) : 0.319
Stream size : 10.7 GiB (92%)
Title : Release from CoolDX
Language : English
Default : Yes
Forced : No
Audio #2
ID : 2
Format : AC-3
Format/Info : Audio Coding 3
Mode extension : CM (complete main)
Format settings, Endianness : Big
Muxing mode : Header stripping
Codec ID : A_AC3
Duration : 2h 11mn
Bit rate mode : Constant
Bit rate : 384 Kbps
Channel(s) : 6 channels
Channel positions : Front: L C R, Side: L R, LFE
Sampling rate : 48.0 KHz
Bit depth : 16 bits
Compression mode : Lossy
Stream size : 360 MiB (3%)
Title : AC3 5.1 @ 384 kbps RUS
Language : Russian
Default : Yes
Forced : No
Audio #3
ID : 3
Format : AC-3
Format/Info : Audio Coding 3
Mode extension : CM (complete main)
Format settings, Endianness : Big
Muxing mode : Header stripping
Codec ID : A_AC3
Duration : 2h 11mn
Bit rate mode : Constant
Bit rate : 384 Kbps
Channel(s) : 6 channels
Channel positions : Front: L C R, Side: L R, LFE
Sampling rate : 48.0 KHz
Bit depth : 16 bits
Compression mode : Lossy
Stream size : 360 MiB (3%)
Title : AC3 5.1 @ 384 kbps ENG
Language : English
Default : No
Forced : No
Text #4
ID : 4
Format : UTF-8
Codec ID : S_TEXT/UTF8
Codec ID/Info : UTF-8 Plain Text
Title : Forced
Language : Russian
Default : Yes
Forced : No
Text #5
ID : 5
Format : UTF-8
Codec ID : S_TEXT/UTF8
Codec ID/Info : UTF-8 Plain Text
Title : Full
Language : Russian
Default : No
Forced : No
Text #6
ID : 6
Format : UTF-8
Codec ID : S_TEXT/UTF8
Codec ID/Info : UTF-8 Plain Text
Title : Full
Language : English
Default : No
Forced : No

Скриншоты







Последний раз редактировалось: CoolDX (2013-09-13 21:11), всего редактировалось 1 раз

Создавать темы 13-Сен-2013 04:05

[Профиль]  [ЛС] 

Дмитриев

Стаж: 7 лет 4 месяца

Сообщений: 139

Симпатии: 12

Sonatrek Спасибо за релиз!!!
а у тебя бдэшка авцэшка нету?

Создавать темы 13-Сен-2013 06:04

[Профиль]  [ЛС] 

Mercuriy

Стаж: 5 лет 11 месяцев

Сообщений: 418

Симпатии: 100

На непереведенные места расширенной версии – русские форсированные субтитры.
Sonatrek, можно ли поинтересоваться? а много ли таких мест ??

Создавать темы 13-Сен-2013 08:30

[Профиль]  [ЛС] 

CoolDX ®

Стаж: 6 лет 9 месяцев

Сообщений: 196

Симпатии: 59

На непереведенные места расширенной версии – русские форсированные субтитры.
Sonatrek, можно ли поинтересоваться? а много ли таких мест ??
нет, не очень много, в основном изменения коснулись динамичных сцен с гонками и драками.

Создавать темы 13-Сен-2013 09:43

[Профиль]  [ЛС] 

Niko_Bellic

Стаж: 5 лет 7 месяцев

Сообщений: 49

Можете скорость дать, плиз! качает со скоростью 3.5 кб/с ппц

Создавать темы 22-Мар-2014 21:13

[Профиль]  [ЛС] 

ulin

Стаж: 5 лет 9 месяцев

Сообщений: 8

пожалуйста дайте скорость

Создавать темы 06-Июл-2014 16:51

[Профиль]  [ЛС] 

icefrog_ss

Стаж: 5 лет 1 месяц

Сообщений: 69

Симпатии: 3

Мужики! Кто поделится раздачей?

Создавать темы 19-Ноя-2014 18:30

[Профиль]  [ЛС] 

icefrog_ss

Стаж: 5 лет 1 месяц

Сообщений: 69

Симпатии: 3

Выйдет уже 7-ой, пока мы будем качать 6 в FHD

Создавать темы 29-Дек-2014 19:18

[Профиль]  [ЛС] 
Показать сообщения:    
Ответить на тему

Текущее время: 23-Окт 13:10

Часовой пояс: UTC + 5



Вы не можете начинать темы
Вы не можете отвечать на сообщения
Вы не можете редактировать свои сообщения
Вы не можете удалять свои сообщения
Вы не можете голосовать в опросах
Вы не можете прикреплять файлы к сообщениям
Вы не можете скачивать файлы