Удачу за хвост / Get Lucky (Саша Беннетт / Sacha Bennett) [2013, Великобритания, боевик, WEB-DLRip] VO

Ответить на тему
 

aziz2725272 ®

Стаж: 4 года 10 месяцев

Сообщений: 158

Симпатии: 6

Удачу за хвост / Get Lucky
Год выпуска: 2013
Страна: Великобритания
Жанр: боевик
Продолжительность: 01:25:46
Перевод: Одноголосый закадровый [Артём Белоконский]
Cубтитры: Нет
Оригинальная аудиодорожка: Нет
Режиссер: Саша Беннетт / Sacha Bennett
В ролях: Люк Тредэвэй, Эмили Атак, Крэйг Фэйрбрасс, Джеймс Космо, Терри Стоун, Т.Дж. Рамини, Марек Оравек, Джейсон Мацца, Ричи Кэмпелл, Ребекка Фердинандо
Описание: Лаки — мелкий преступник, живет беззаботной жизнью, пока он не соглашается позаботиться о небольшом количестве фальшивых денег для друга, у которого проблемы с законом.
Доп. информация: премьера (мир) 21 марта 2013
Качество: WEB-DLRip
Формат: AVI
Видео: XviD, 1888 kb/s, 720x400 (16:9), 23,9 fps
Аудио: AC3, 384 kb/s (6 ch)

МИ

Общее
Полное имя : E:\Удачу за хвост.avi
Формат : AVI
Формат/Информация : Audio Video Interleave
Размер файла : 1,37 Гбайт
Продолжительность : 1 ч. 25 м.
Общий поток : 2282 Кбит/сек
Программа кодирования : VirtualDubMod 1.5.10.2 (build 2540/release)
Библиотека кодирования : VirtualDubMod build 2540/release
Видео
Идентификатор : 0
Формат : MPEG-4 Visual
Профиль формата : Advanced [email protected]
Параметр BVOP формата : 2
Параметр QPel формата : Нет
Параметр GMC формата : Без точки перехода
Параметр матрицы формата : Default (MPEG)
Идентификатор кодека : XVID
Идентификатор кодека/Подсказка : XviD
Продолжительность : 1 ч. 25 м.
Битрейт : 1889 Кбит/сек
Ширина : 720 пикселей
Высота : 400 пикселей
Соотношение сторон : 16:9
Частота кадров : 23,976 кадра/сек
Цветовое пространство : YUV
Субдискретизация насыщенности : 4:2:0
Битовая глубина : 8 бит
Тип развёртки : Прогрессивная
Метод сжатия : С потерями
Бит/(Пиксели*Кадры) : 0.274
Размер потока : 1,13 Гбайт (83%)
Библиотека кодирования : XviD 1.2.1 (UTC 2008-12-04)
Аудио
Идентификатор : 1
Формат : AC-3
Формат/Информация : Audio Coding 3
Расширение режима : CM (complete main)
Параметр Endianness формата : Big
Идентификатор кодека : 2000
Продолжительность : 1 ч. 25 м.
Вид битрейта : Постоянный
Битрейт : 384 Кбит/сек
Каналы : 6 каналов
Расположение каналов : Front: L C R, Side: L R, LFE
Частота : 48,0 КГц
Битовая глубина : 16 бит
Метод сжатия : С потерями
Размер потока : 236 Мбайт (17%)
Выравнивание : Разделение по промежуткам
Продолжительность промежутка : 42 мс. (1,00 видеокадр)
Время предзагрузки промежутка : 500 мс.

Скриншоты

Создавать темы 13-Сен-2013 06:26

[Профиль]  [ЛС] 

t1man

Стаж: 4 года 10 месяцев

Сообщений: 75

Будем ждать лицуху)

Создавать темы 13-Сен-2013 14:56

[Профиль]  [ЛС] 

Dem.Eloev

Стаж: 4 года 5 месяцев

Сообщений: 13

Симпатии: 4

Постеры как в GTA IV :)

Создавать темы 15-Сен-2013 20:00

[Профиль]  [ЛС] 
Показать сообщения:    
Ответить на тему

Текущее время: 18-Авг 08:12

Часовой пояс: UTC + 5



Вы не можете начинать темы
Вы не можете отвечать на сообщения
Вы не можете редактировать свои сообщения
Вы не можете удалять свои сообщения
Вы не можете голосовать в опросах
Вы не можете прикреплять файлы к сообщениям
Вы не можете скачивать файлы