Перекрестки судеб / Intersections (Дэвид Маркони / David Marconi) [2013, Франция, триллер, мелодрама, DVDRip] VO (Хихидок)

Ответить на тему
 

aziz2725272 ®

Стаж: 5 лет 1 месяц

Сообщений: 158

Симпатии: 6

Перекрестки судеб / Intersections
Год выпуска: 2013
Страна: Франция, Canal+ [fr], EuropaCorp, Grive Productions
Жанр: триллер, мелодрама
Продолжительность: 01:37:21
Перевод: Любительский (одноголосый закадровый)
Хихикающий доктор
Режиссер: Дэвид Маркони / David Marconi
В ролях: Фрэнк Грилло, Джейми Александер, Рошди Зем, Мари-Жозе Кроз, Мусса Мааскри, Чарли Бьюли, Аффиф Бен Бадра, Карлос Леаль, Габриэлла Райт, Абделила Надиф и др.
Описание: В центре сюжета молодая пара. Однако их брак не так уж безоблачен. У женщины есть любовник на стороне, и с его помощью она разрабатывает план убийства мужа. Но все идет наперекосяк, когда муж и его соперник оказываются вместе на марокканской пустынной дороге после автомобильной катастрофы.

Качество: DVDRip
Формат: AVI
Видео: XviD, 863 Кбит/с, 640x272
Аудио: MP3, 2 ch, 256 Кбит/с

M.I.

X:\FILMS\Films\Intersections.2013. Xixidok.avi
General
Complete name : X:\FILMS\Films\Intersections.2013. Xixidok.avi
Format : AVI
Format/Info : Audio Video Interleave
File size : 787 MiB
Duration : 1h 37mn
Overall bit rate : 1 129 Kbps
Writing application : VirtualDubMod 1.5.10.3 (build 2550/release)
Writing library : VirtualDubMod build 2550/release
Video #0
ID : 0
Format : MPEG-4 Visual
Format profile : Advanced [email protected]
Format settings, BVOP : 2
Format settings, QPel : No
Format settings, GMC : No warppoints
Format settings, Matrix : Default (H.263)
Muxing mode : Packed bitstream
Codec ID : XVID
Codec ID/Hint : XviD
Duration : 1h 37mn
Bit rate : 864 Kbps
Width : 640 pixels
Height : 272 pixels
Display aspect ratio : 2.35:1
Frame rate : 25.000 fps
Color space : YUV
Chroma subsampling : 4:2:0
Bit depth : 8 bits
Scan type : Progressive
Compression mode : Lossy
Bits/(Pixel*Frame) : 0.198
Stream size : 602 MiB (76%)
Writing library : XviD 1.2.1 (UTC 2008-12-04)
Audio #1
ID : 1
Format : MPEG Audio
Format version : Version 1
Format profile : Layer 3
Codec ID : 55
Codec ID/Hint : MP3
Duration : 1h 37mn
Bit rate mode : Constant
Bit rate : 256 Kbps
Channel(s) : 2 channels
Sampling rate : 44.1 KHz
Compression mode : Lossy
Stream size : 178 MiB (23%)
Alignment : Split accross interleaves
Interleave, duration : 40 ms (1.00 video frame)
Interleave, preload duration : 500 ms

Скриншоты

Создавать темы 13-Сен-2013 16:16

[Профиль]  [ЛС] 

aziz2725272 ®

Стаж: 5 лет 1 месяц

Сообщений: 158

Симпатии: 6

Сюжет отличный, завернут очень лихо, хоть и не без дыр. Держит реально. Потянет на 7,5 - 8 из 10

Создавать темы 15-Сен-2013 13:13

[Профиль]  [ЛС] 

shoxrux09

Стаж: 5 лет

Сообщений: 32

Симпатии: 4

отлично

Создавать темы 17-Сен-2013 23:39

[Профиль]  [ЛС] 

Jnec

Стаж: 5 лет 1 месяц

Сообщений: 165

Спасибо!!

Создавать темы 19-Сен-2013 11:09

[Профиль]  [ЛС] 
Показать сообщения:    
Ответить на тему

Текущее время: 24-Ноя 16:10

Часовой пояс: UTC + 5



Вы не можете начинать темы
Вы не можете отвечать на сообщения
Вы не можете редактировать свои сообщения
Вы не можете удалять свои сообщения
Вы не можете голосовать в опросах
Вы не можете прикреплять файлы к сообщениям
Вы не можете скачивать файлы