Иллюзия обмана / Now You See Me (Луи Летерье) [2013 г., Детектив, Криминал, Триллер, BDRip-AVC](Лицензия)

Ответить на тему
 

PIXEL 100 ®

Стаж: 4 года 6 месяцев

Сообщений: 49

Симпатии: 8

Иллюзия обмана / Now You See Me
«Чем вы ближе, тем меньше вы видите.»
Год выпуска: 2013
Страна: США, Франция
Жанр: Детектив, Криминал, Триллер
Продолжительность: 01:55:24
Перевод:Профессиональный (полное дублирование) Лицензия
Режиссер: Луи Летерье
В ролях: Айла Фишер, Вуди Харрельсон, Джесси Айзенберг, Дэйв Франко, Коммон, Майкл Кейн, Майкл Келли, Марк Руффало, Мелани Лоран, Морган Фриман-Описание: Команда лучших иллюзионистов мира проворачивает дерзкие ограбления прямо во время своих шоу, играя в кошки-мышки с агентами ФБР.-Доп. информация: «Иллюзия обмана» — криминальный триллер о фокусниках режиссёра Луи Летерье. Премьера в США состоялась 31 мая 2013 года, в России — 12 июня. При бюджете 75 млн. $, сборы во всём мире составили 317 400 877 $.
КиноПоиск.ru: 7,9/10 -Качество: BDRip-AVC
Формат: MKV
Видео кодек: H264
Аудио кодек: AC3
Видео: MPEG4 Video (H264) 1280x720 / 4 260 Kbps / 29.97fps
Аудио #1: Russian Dolby AC3 48000Hz 6ch / 512 Kbps / 16 bits
Audio #2: English Dolby AC3 48000Hz 6ch / 448 Kbps / 16 bits-

Media info

Format : Matroska
Format version : Version 4 / Version 2
File size : 3.43 GiB
Duration : 1h 55mn
Overall bit rate : 4 260 Kbps
Encoded date : UTC 2013-09-13 16:46:34
Writing application : VirtualDubMod 1.5.10.2 (build 2540/release)
Writing library : libebml v1.3.0 + libmatroska v1.4.0
Video
ID : 1
Format : AVC
Format/Info : Advanced Video Codec
Format profile : [email protected]
Format settings, CABAC : Yes
Format settings, ReFrames : 1 frame
Codec ID : V_MPEG4/ISO/AVC
Duration : 1h 55mn
Bit rate : 3 282 Kbps
Width : 1 280 pixels
Height : 720 pixels
Display aspect ratio : 16:9
Frame rate mode : Constant
Frame rate : 29.970 fps
Color space : YUV
Chroma subsampling : 4:2:0
Bit depth : 8 bits
Scan type : Progressive
Bits/(Pixel*Frame) : 0.119
Stream size : 2.59 GiB (75%)
Writing library : x264 core 129
Language : English
Default : Yes
Forced : No
Audio #1
ID : 2
Format : AC-3
Format/Info : Audio Coding 3
Mode extension : CM (complete main)
Format settings, Endianness : Big
Codec ID : A_AC3
Duration : 1h 55mn
Bit rate mode : Constant
Bit rate : 512 Kbps
Channel(s) : 6 channels
Channel positions : Front: L C R, Side: L R, LFE
Sampling rate : 48.0 KHz
Bit depth : 16 bits
Compression mode : Lossy
Stream size : 423 MiB (12%)
Language : Russian
Default : Yes
Forced : No
Audio #2
ID : 3
Format : AC-3
Format/Info : Audio Coding 3
Mode extension : CM (complete main)
Format settings, Endianness : Big
Codec ID : A_AC3
Duration : 1h 55mn
Bit rate mode : Constant
Bit rate : 448 Kbps
Channel(s) : 6 channels
Channel positions : Front: L C R, Side: L R, LFE
Sampling rate : 48.0 KHz
Bit depth : 16 bits
Compression mode : Lossy
Stream size : 370 MiB (11%)
Language : English
Default : No
Forced : No

Скриншоты

Создавать темы 13-Сен-2013 23:08

[Профиль]  [ЛС] 

Топик был перенесен из форума Фильмы за 2013 (новинки) в форум HD-AVC

СтАсИкОс

Создавать темы 13-Сен-2013 23:13

 

Дмитриев

Стаж: 7 лет 5 месяцев

Сообщений: 139

Симпатии: 12

PIXEL 100 Фильм просто s\upeR! Всем советую!

Создавать темы 14-Сен-2013 01:06

[Профиль]  [ЛС] 

Kubaev_Muhiddin

Стаж: 6 лет 9 месяцев

Сообщений: 104

Симпатии: 34

Спасибо PIXEL 100, , я с раздачей помогу

Создавать темы 14-Сен-2013 22:31

[Профиль]  [ЛС] 

ziyod

Стаж: 7 лет 8 месяцев

Сообщений: 367

Симпатии: 60

PIXEL 100, дайте ссылку откуда качали, рип вообще туфтовый, как будто перекодировали 1.5 гиговый avi с искусственным битскейлингом...

Создавать темы 24-Сен-2013 11:59

[Профиль]  [ЛС] 

dimabek

Стаж: 6 лет 10 месяцев

Сообщений: 87

Симпатии: 13

Сиды и личеры встаньте на раздачу

Создавать темы 01-Окт-2013 19:37

[Профиль]  [ЛС] 

Monroe

Стаж: 4 года 5 месяцев

Сообщений: 220

Симпатии: 62

Фильм просто супер! Советую всем посмотреть pc

Создавать темы 02-Окт-2013 14:34

[Профиль]  [ЛС] 
Показать сообщения:    
Ответить на тему

Текущее время: 22-Ноя 16:17

Часовой пояс: UTC + 5



Вы не можете начинать темы
Вы не можете отвечать на сообщения
Вы не можете редактировать свои сообщения
Вы не можете удалять свои сообщения
Вы не можете голосовать в опросах
Вы не можете прикреплять файлы к сообщениям
Вы не можете скачивать файлы