Параджанов / Параджанов (Серж Аведикян, Елена Фетисова) [2013 г., Драма, Мелодрама, DVDRip]

Ответить на тему
 

Nosferatu ®

Стаж: 4 года 5 месяцев

Сообщений: 79

Симпатии: 5

Параджанов
Год выпуска: 2013
Страна: Украина, Франция, Армения, Грузия
Жанр: Драма, Мелодрама
Продолжительность: 01:31:18
Перевод: Не требуется
Режиссер: Серж Аведикян, Елена Фетисова
В ролях: Юлия Пересильд, Серж Аведикян, Карэн Бадалов, Михаил Пшеничный
Описание: Режиссер Сергей Параджанов создает прекрасные фильмы. Его нон-конформистское поведение входит в противоречие с Советской системой. За свою эксцентричность он попадает в тюрьму. Его нерушимая любовь к красоте позволяет ему устоять в годы тюремного заключения, изоляции и забвения.
Доп. информация:
Бюджет: €1 980 000
Рейтинг КиноПоиск.Ru: 7.379 (53)
Качество: DVDRip
Формат: AVI
Видео: 720x400 (1.80:1), 25 fps, XviD build 46 ~1755 kbps avg
Аудио: 48 kHz, AC3 Dolby Digital, 2/0 (L,R) ch, ~256.00 kbps avg

M/I

Format : AVI
Format/Info : Audio Video Interleave
File size : 1.13 GiB
Duration : 1h 31mn
Overall bit rate : 1 766 Kbps
Writing application : VirtualDubMod 1.5.10.2 (build 2542/release)
Writing library : VirtualDubMod build 2542/release
Video
ID : 0
Format : MPEG-4 Visual
Format profile : [email protected]
Format settings, BVOP : No
Format settings, QPel : No
Format settings, GMC : No warppoints
Format settings, Matrix : Default (H.263)
Codec ID : XVID
Codec ID/Hint : XviD
Duration : 1h 31mn
Bit rate : 1 500 Kbps
Width : 720 pixels
Height : 400 pixels
Display aspect ratio : 16:9
Frame rate : 25.000 fps
Color space : YUV
Chroma subsampling : 4:2:0
Bit depth : 8 bits
Scan type : Progressive
Compression mode : Lossy
Bits/(Pixel*Frame) : 0.208
Stream size : 980 MiB (85%)
Writing library : XviD 1.1.2 (UTC 2006-11-01)
Audio
ID : 1
Format : AC-3
Format/Info : Audio Coding 3
Mode extension : CM (complete main)
Format settings, Endianness : Big
Codec ID : 2000
Duration : 1h 31mn
Bit rate mode : Constant
Bit rate : 256 Kbps
Channel(s) : 2 channels
Channel positions : Front: L R
Sampling rate : 48.0 KHz
Bit depth : 16 bits
Compression mode : Lossy
Stream size : 167 MiB (14%)
Alignment : Split accross interleaves
Interleave, duration : 40 ms (1.00 video frame)
Interleave, preload duration : 500 ms

Скриншоты



Последний раз редактировалось: Nosferatu (2013-09-16 07:51), всего редактировалось 3 раз(а)

Создавать темы 15-Сен-2013 22:35

[Профиль]  [ЛС] 

leon_1991

Стаж: 4 года 10 месяцев

Сообщений: 36

Симпатии: 1

Перевод: ?
что означает

Создавать темы 15-Сен-2013 23:07

[Профиль]  [ЛС] 

Nosferatu ®

Стаж: 4 года 5 месяцев

Сообщений: 79

Симпатии: 5

Это означает что все они говорят тут по русски но фильм иностранный )

Создавать темы 15-Сен-2013 23:18

[Профиль]  [ЛС] 

t1man

Стаж: 4 года 10 месяцев

Сообщений: 75

Спасибо за фильм, за 10 ч закачал! Помогу с раздачей

Создавать темы 18-Сен-2013 08:44

[Профиль]  [ЛС] 

Jnec

Стаж: 4 года 10 месяцев

Сообщений: 165

Спасибо!

Создавать темы 19-Сен-2013 11:09

[Профиль]  [ЛС] 

Sakar

Стаж: 3 года 9 месяцев

Сообщений: 26

дайте пожалуйста скорость. и как фильм? интересный?

Создавать темы 19-Ноя-2013 22:04

[Профиль]  [ЛС] 

Лекс

Стаж: 4 года 9 месяцев

Сообщений: 31

Nosferatu, А гда там Русский?

Создавать темы 03-Фев-2014 03:18

[Профиль]  [ЛС] 

Лекс

Стаж: 4 года 9 месяцев

Сообщений: 31

Nosferatu, Очень сложно Американцу или Англичанину отличить русский от украинского примерно так же как русскому понять украинский а матёрому Украинцу русский!

Создавать темы 03-Фев-2014 03:23

[Профиль]  [ЛС] 
Показать сообщения:    
Ответить на тему

Текущее время: 22-Авг 08:25

Часовой пояс: UTC + 5



Вы не можете начинать темы
Вы не можете отвечать на сообщения
Вы не можете редактировать свои сообщения
Вы не можете удалять свои сообщения
Вы не можете голосовать в опросах
Вы не можете прикреплять файлы к сообщениям
Вы не можете скачивать файлы