Мальчишник: Часть III / The Hangover Part III (Тодд Филлипс) [2013 г., Комедия, DVDRip] A1 (Гоблин)

Ответить на тему
 

Nosferatu ®

Стаж: 4 года 8 месяцев

Сообщений: 79

Симпатии: 5

Мальчишник: Часть III (Гоблин) / The Hangover Part III

Год выпуска: 2013
Страна: США
Жанр: Комедия
Продолжительность: 01:40:15
Перевод: Авторский (одноголосый, закадровый) Гоблин [Ужасного качества]
Режиссер: Тодд Филлипс
В ролях: Брэдли Купер, Джастин Барта, Джеффри Тэмбор, Джон Гудман, Зак Галифианакис, Кен Жонг, Мелисса МакКарти, Хэзер Грэм, Эд Хелмс, Джейми Чунг
Описание: В этот раз никакой свадьбы. Никакого мальчишника. Казалось бы, что могло пойти не так? Но когда Волчья стая оказывается на дороге, все ставки снимаются.
Доп. информация:
Бюджет: $103 000 000
Рейтинг КиноПоиск.Ru: 6.626 (27468)
Рейтинг IMDb: 6 (66636)
Качество: DVDRip
Формат: AVI
Видео кодек: XviD
Аудио кодек: MP3
Видео: Xvid 720x304 (44:19) 23.976fps [Video]
Аудио: MP3 44100Hz stereo 192kbps [Audio]

M.I.

Format : AVI
Format/Info : Audio Video Interleave
File size : 1.38 GiB
Duration : 1h 40mn
Overall bit rate : 1 971 Kbps
Writing application : VirtualDubMod 1.5.10.2 (build 2540/release)
Writing library : VirtualDubMod build 2540/release
Video
ID : 0
Format : MPEG-4 Visual
Format profile : [email protected]
Format settings, BVOP : Yes
Format settings, QPel : No
Format settings, GMC : No warppoints
Format settings, Matrix : Default (MPEG)
Codec ID : XVID
Codec ID/Hint : XviD
Duration : 1h 40mn
Bit rate : 1 770 Kbps
Width : 720 pixels
Height : 304 pixels
Display aspect ratio : 2.35:1
Frame rate : 23.976 fps
Color space : YUV
Chroma subsampling : 4:2:0
Bit depth : 8 bits
Scan type : Progressive
Compression mode : Lossy
Bits/(Pixel*Frame) : 0.337
Stream size : 1.24 GiB (90%)
Writing library : XviD 64
Audio
ID : 1
Format : MPEG Audio
Format version : Version 1
Format profile : Layer 3
Codec ID : 55
Codec ID/Hint : MP3
Duration : 1h 40mn
Bit rate mode : Constant
Bit rate : 192 Kbps
Channel(s) : 2 channels
Sampling rate : 44.1 KHz
Compression mode : Lossy
Stream size : 138 MiB (10%)
Alignment : Split accross interleaves
Interleave, duration : 42 ms (1.00 video frame)
Interleave, preload duration : 500 ms

Скриншоты









Последний раз редактировалось: Nosferatu (2013-09-20 02:55), всего редактировалось 2 раз(а)

Создавать темы 16-Сен-2013 14:41

[Профиль]  [ЛС] 

Mixer City

Стаж: 6 лет 11 месяцев

Сообщений: 754

Симпатии: 63

Nosferatu, подправил пункт Перевод.

Создавать темы 16-Сен-2013 14:54

[Профиль]  [ЛС] 

Vudi18

Стаж: 5 лет 1 месяц

Сообщений: 117

Симпатии: 3

Качал с другого источника :DПрисоединяюсь к раздаче :D

Создавать темы 16-Сен-2013 14:59

[Профиль]  [ЛС] 

SNIL

Стаж: 5 лет 11 месяцев

Сообщений: 2624

Симпатии: 341

Как озвучка?

Создавать темы 16-Сен-2013 15:21

[Профиль]  [ЛС] 

rza

Стаж: 6 лет 7 месяцев

Сообщений: 11

Как озвучка?
Ужасная

Создавать темы 16-Сен-2013 16:04

[Профиль]  [ЛС] 

SNIL

Стаж: 5 лет 11 месяцев

Сообщений: 2624

Симпатии: 341

rza, СПС! ждём другого)

Создавать темы 16-Сен-2013 16:13

[Профиль]  [ЛС] 

regulator

Стаж: 6 лет 10 месяцев

Сообщений: 53

Симпатии: 17

один мат с моей стороны , звук ужасный , надо было написать что звук с мобильного телефона.

Создавать темы 16-Сен-2013 18:07

[Профиль]  [ЛС] 

ikrom92

Стаж: 5 лет 11 месяцев

Сообщений: 23

Симпатии: 1

присоединяюсь к раздаче

Создавать темы 16-Сен-2013 18:28

[Профиль]  [ЛС] 

Nosferatu ®

Стаж: 4 года 8 месяцев

Сообщений: 79

Симпатии: 5

Nosferatu, подправил пункт Перевод.
Спасибо

Создавать темы 16-Сен-2013 18:44

[Профиль]  [ЛС] 
Показать сообщения:    
Ответить на тему

Текущее время: 14-Дек 01:28

Часовой пояс: UTC + 5



Вы не можете начинать темы
Вы не можете отвечать на сообщения
Вы не можете редактировать свои сообщения
Вы не можете удалять свои сообщения
Вы не можете голосовать в опросах
Вы не можете прикреплять файлы к сообщениям
Вы не можете скачивать файлы