Колония / The Colony (Джефф Ренфро) [2013 г., Боевик, Триллер, Фантастика, BDRip 1080p]

Ответить на тему
 

xamidxikmat ®

Стаж: 5 лет 2 месяца

Сообщений: 14

Симпатии: 2

Колония (HD 1080p)/ The Colony
Год выпуска: 2013
Страна
: Канада
Жанр: Боевик, Триллер, Фантастика
Продолжительность: 01:34:26
Перевод: Профессиональный (полное дублирование)

Режиссер: Джефф Ренфро
В ролях: Билл Пэкстон, Джулиан Ричингс, Кевин Зегерс, Лоренс Фишбёрн, Романо Орзари, Шарлотта Салливан, Джон Тенч, Аттикус Дин Митчелл, Дрю Вигевер, Майкл Мэндо
Описание: После природного катаклизма, под ледяной поверхностью, покрывшей Землю, оставшиеся в живых люди собрались в Колонию 7 и пытаются выжить несмотря на сокращающиеся запасы продовольствия. Они еще поддерживают связь с Колонией 5, но после того, как контакт с ними теряется, группа смельчаков отправляется в опасную экспедицию, чтобы выяснить, что произошло с их соседями. Преодолев тяжелейший путь герои сталкиваются с опасностью во много раз превосходящую природную угрозу холод
Бюджет: $16 000 000
Качество: BDRip (1080)
Формат: MKV
Видео кодек: AVC
Аудио кодек: AC3
Видео: AVC, 11.7Mbps, 1920x816
Аудио #1: AC-3, 192 Kbps, 2 channels, 48.0 KHz, rus, den904
Аудио #2: AC-3, 192 Kbps, 2 channels, 48.0 KHz, rus, Пираты
Аудио #3: AC-3, 192 Kbps, 2 channels, 48.0 KHz, rus, В.Белов
Аудио #4: DTS, 1510 Kbps, 6 channels, 48.0 KHz, eng
Субтитры: rus (an0nym0us, k1ndcat, st_prapor), eng

MediaInfo

General
Complete name :Koloniya_The Colony.BluRay.1080p.mkv
Format : Matroska
File size : 9.12 GiB
Duration : 1h 34mn
Overall bit rate : 13.8 Mbps
Movie name : CINEMANIA.CC
Encoded date : UTC 2013-09-03 09:06:39
Writing application : mkvmerge v6.3.0 ('You can't stop me!') built on Jun 28 2013 20:09:41
Writing library : libebml v1.3.0 + libmatroska v1.4.0
Video
ID : 1
Format : AVC
Format/Info : Advanced Video Codec
Format profile : [email protected]
Format settings, CABAC : Yes
Format settings, ReFrames : 5 frames
Muxing mode : Container [email protected]
Codec ID : V_MPEG4/ISO/AVC
Duration : 1h 34mn
Bit rate : 11.5 Mbps
Nominal bit rate : 11.7 Mbps
Width : 1 920 pixels
Height : 816 pixels
Display aspect ratio : 2.35:1
Frame rate : 23.976 fps
Resolution : 8 bits
Colorimetry : 4:2:0
Scan type : Progressive
Bits/(Pixel*Frame) : 0.305
Stream size : 7.56 GiB (83%)
Title : CINEMANIA.CC
Writing library : x264 core 129 r2245+704+36 8e61944 tMod+MixAQ [[email protected]:2:0 X86_64]
Encoding settings : cabac=1 / ref=5 / deblock=1:-3:-3 / analyse=0x3:0x133 / me=umh / subme=11 / psy=1 / fade_compensate=0.00 / psy_rd=1.05:0.10 / mixed_ref=1 / me_range=64 / chroma_me=1 / trellis=2 / 8x8dct=1 / cqm=0 / deadzone=21,11 / fast_pskip=0 / chroma_qp_offset=-3 / threads=18 / lookahead_threads=3 / sliced_threads=0 / nr=0 / decimate=1 / interlaced=0 / bluray_compat=0 / constrained_intra=0 / fgo=0 / bframes=8 / b_pyramid=2 / b_adapt=2 / b_bias=0 / direct=3 / weightb=1 / open_gop=0 / weightp=2 / keyint=250 / keyint_min=23 / scenecut=40 / intra_refresh=0 / rc=2pass / mbtree=0 / bitrate=11746 / ratetol=1.0 / qcomp=0.70 / qpmin=0 / qpmax=69 / qpstep=4 / cplxblur=20.0 / qblur=0.5 / ip_ratio=1.40 / pb_ratio=1.30 / aq=3 / aq-strength=0.90 / aq-sensitivity=10.00 / aq-ifactor=1.00 / aq-pfactor=1.00 / aq-bfactor=1.00 / aq2=0
Matrix coefficients : BT.709-5, BT.1361, IEC 61966-2-4 709, SMPTE RP177
Audio #1
ID : 2
Format : AC-3
Format/Info : Audio Coding 3
Codec ID : A_AC3
Duration : 1h 34mn
Bit rate mode : Constant
Bit rate : 192 Kbps
Channel(s) : 2 channels
Channel positions : L R
Sampling rate : 48.0 KHz
Stream size : 130 MiB (1%)
Title : den904
Language : Russian
Audio #2
ID : 3
Format : AC-3
Format/Info : Audio Coding 3
Codec ID : A_AC3
Duration : 1h 34mn
Bit rate mode : Constant
Bit rate : 192 Kbps
Channel(s) : 2 channels
Channel positions : L R
Sampling rate : 48.0 KHz
Stream size : 130 MiB (1%)
Title : Пираты
Language : Russian
Audio #3
ID : 4
Format : AC-3
Format/Info : Audio Coding 3
Codec ID : A_AC3
Duration : 1h 34mn
Bit rate mode : Constant
Bit rate : 192 Kbps
Channel(s) : 2 channels
Channel positions : L R
Sampling rate : 48.0 KHz
Stream size : 130 MiB (1%)
Title : В.Белов
Language : Russian
Audio #4
ID : 5
Format : DTS
Format/Info : Digital Theater Systems
Codec ID : A_DTS
Duration : 1h 34mn
Bit rate mode : Constant
Bit rate : 1 510 Kbps
Channel(s) : 6 channels
Channel positions : Front: L C R, Surround: L R, LFE
Sampling rate : 48.0 KHz
Resolution : 24 bits
Stream size : 1 020 MiB (11%)

Скриншоты



Последний раз редактировалось: xamidxikmat (2013-09-18 02:46), всего редактировалось 14 раз(а)

Создавать темы 16-Сен-2013 16:03

[Профиль]  [ЛС] 

xamidxikmat ®

Стаж: 5 лет 2 месяца

Сообщений: 14

Симпатии: 2

это моя первая раздача, прошу строго не судить. Если есть ошибки помогите исправит, заранее спасибо! Надеюсь на вашу помощь!

Создавать темы 16-Сен-2013 16:21

[Профиль]  [ЛС] 

Astrolog

Стаж: 5 лет 5 месяцев

Сообщений: 213

Симпатии: 27

Ё-ё-ё...
Ещё бы: "Колония" в качестве и с проф. переводом. В качестве, но не столь объёмном...((
xamidxikmat, постер и скрины сюда закиньте: http://tas-ix.net/gallery.php

Создавать темы 16-Сен-2013 16:32

[Профиль]  [ЛС] 

4099069

Стаж: 4 года 6 месяцев

Сообщений: 23

Симпатии: 6

Скриншоты

Создавать темы 16-Сен-2013 16:37

[Профиль]  [ЛС] 

Robot-IX

Стаж: 5 лет 7 месяцев

Сообщений: 223

Симпатии: 9

это моя первая раздача, прошу строго не судить. Если есть ошибки помогите исправит, заранее спасибо! Надеюсь на вашу помощь!
молодец! лиха беда начала...! )) +
p.s. тока надо было пробывать в тестовом форуме !

Создавать темы 16-Сен-2013 23:43

[Профиль]  [ЛС] 

star__scrim

Стаж: 7 лет 9 месяцев

Сообщений: 41

Если не ошибаюсь на кинозале, такой рип и лежит, техданные совпадают и нет здесь жалко дубляжа, а есть три любительских перевода

Создавать темы 17-Сен-2013 03:20

[Профиль]  [ЛС] 

victor0778

Стаж: 6 лет 9 месяцев

Сообщений: 1670

Симпатии: 142

xamidxikmat,
Видео кодек: DivX
Медиа инфо выложите

Создавать темы 17-Сен-2013 10:50

[Профиль]  [ЛС] 

David Villa

Стаж: 4 года 6 месяцев

Сообщений: 164

Симпатии: 1

это моя первая раздача, прошу строго не судить. Если есть ошибки помогите исправит, заранее спасибо! Надеюсь на вашу помощь!
Здесь не судят, а качают и говорят спасибо. А судят здесь только Модераторы.

Создавать темы 13-Окт-2013 21:39

[Профиль]  [ЛС] 

Арипов Мурод

Стаж: 3 года 11 месяцев

Сообщений: 49

David Villa, молодец +5

Создавать темы 05-Янв-2014 22:26

[Профиль]  [ЛС] 

bobkli

Стаж: 4 года 8 месяцев

Сообщений: 27

Симпатии: 1

Кто скачал встаньте на раздачу
8 раздающих, а скорость скачки 1,4 кб
мужики дайте скачать этот фильм

Создавать темы 26-Янв-2014 11:43

[Профиль]  [ЛС] 
Показать сообщения:    
Ответить на тему

Текущее время: 20-Ноя 20:31

Часовой пояс: UTC + 5



Вы не можете начинать темы
Вы не можете отвечать на сообщения
Вы не можете редактировать свои сообщения
Вы не можете удалять свои сообщения
Вы не можете голосовать в опросах
Вы не можете прикреплять файлы к сообщениям
Вы не можете скачивать файлы