Форсаж: Квадрология / The Fast and The Furious Quadrology

Ответить на тему
 

MeVaZor ®

Стаж: 4 года 2 месяца

Сообщений: 40

Симпатии: 21

Форсаж / The Fast and the Furious- -Год выхода: 2001
Жанр: боевик, триллер, криминал-Режиссер: Роб Коэн-В ролях: Пол Уокер, Вин Дизель, Мишель Родригес, Джордана Брюстер, Рик Юн, Чэд Линдберг, Джонни Стронг, Мэтт Шульце, Тед Левайн, Джа Рул-О фильме:
Его зовут Брайан, и он — фанатик турбин и нитроускорителей. Его цель — быть принятым в автобанду легендарного Доминика Торетто, чемпиона опасных и незаконных уличных гонок. Но это лишь часть правды… Брайан также полицейский, имеющий задание войти в доверие к Торетто, подозреваемому в причастности к дерзким грабежам трейлеров, совершенным прямо «с колес».
Но чем больше доверяет нахальному новичку харизматичный Доминик, тем больше проникается герой идеалами «ангелов дорог». И тем меньше ему хочется выполнять свою миссию. И вот, наступает момент, когда Брайану придется выбирать между дружбой и долгом. И выбирать на скорости в 200 километров в час…
-Дополнительная информация:
Бюджет: $38 000 000
Маркетинг: $35 000 000
Сборы в США: $144 533 925
Сборы в мире: + $62 750 000 = $207 283 925
Премьера (мир): 18 июня 2001
Премьера (РФ): 18 октября 2001, «Ист-Вест»
Релиз на DVD: 10 марта 2009, «Юниверсал Пикчерс Рус»
Релиз на Blu-Ray: 4 августа 2009, «Юниверсал Пикчерс Рус»
Выпущено: Universal Pictures
Продолжительность: 01:46:50
Перевод: Дублированный-Кодек: x264
Качество: BDRip (источник: Blu-ray Disc)
Видео: 1920x816 (2,35:1), 23.976 fps, 5410 kbps
Звук: 48 kHz, AC-3, 6 ch, 448 kbps
Субтитры: Английские
Размер: 4.37 Gb

MI



Код:
Format : Matroska
File size : 4.37 GiB
Duration : 1h 46mn
Overall bit rate : 5 860 Kbps
Encoded date : UTC 2011-05-14 10:28:29
Writing application : mkvmerge v4.0.0 ('The Stars were mine') сборка от Jun 6 2010 16:18:42
Writing library : libebml v1.0.0 + libmatroska v1.0.0
Video
ID : 1
Format : AVC
Format/Info : Advanced Video Codec
Format profile : [email protected]
Format settings, CABAC : Yes
Format settings, ReFrames : 5 frames
Codec ID : V_MPEG4/ISO/AVC
Duration : 1h 46mn
Bit rate : 5 410 Kbps
Width : 1 920 pixels
Height : 816 pixels
Display aspect ratio : 2.35:1
Frame rate : 23.976 fps
Color space : YUV
Chroma subsampling : 4:2:0
Bit depth : 8 bits
Scan type : Progressive
Bits/(Pixel*Frame) : 0.144
Stream size : 3.95 GiB (90%)
Writing library : x264 core 115 r1995 c1e60b9
Encoding settings : cabac=1 / ref=5 / deblock=1:0:0 / analyse=0x3:0x133 / me=umh / subme=10 / psy=1 / psy_rd=1.00:0.10 / mixed_ref=1 / me_range=24 / chroma_me=1 / trellis=2 / 8x8dct=1 / cqm=0 / deadzone=21,11 / fast_pskip=0 / chroma_qp_offset=-3 / threads=12 / sliced_threads=0 / nr=0 / decimate=1 / interlaced=0 / bluray_compat=0 / constrained_intra=0 / bframes=5 / b_pyramid=2 / b_adapt=2 / b_bias=0 / direct=3 / weightb=1 / open_gop=0 / weightp=2 / keyint=250 / keyint_min=23 / scenecut=40 / intra_refresh=0 / rc_lookahead=60 / rc=2pass / mbtree=1 / bitrate=5410 / ratetol=1.0 / qcomp=0.60 / qpmin=0 / qpmax=69 / qpstep=4 / cplxblur=20.0 / qblur=0.5 / ip_ratio=1.40 / aq=1:1.00
Language : English
Audio
ID : 2
Format : AC-3
Format/Info : Audio Coding 3
Mode extension : CM (complete main)
Codec ID : A_AC3
Duration : 1h 46mn
Bit rate mode : Constant
Bit rate : 448 Kbps
Channel(s) : 6 channels
Channel positions : Front: L C R, Side: L R, LFE
Sampling rate : 48.0 KHz
Bit depth : 16 bits
Compression mode : Lossy
Stream size : 342 MiB (8%)
Language : Russian
Text
ID : 3
Format : UTF-8
Codec ID : S_TEXT/UTF8
Codec ID/Info : UTF-8 Plain Text
Language : English
-

Скриншоты


--Двойной форсаж/ 2 Fast 2 Furious- -Год выхода: 2003
Жанр: боевик, триллер, криминал-Режиссер: Джон Синглтон-В ролях: Пол Уокер, Тайриз Гибсон, Ева Мендес, Коул Хаузер, Лудакрис, Том Бэрри, Джеймс Римар, Девон Аоки, Амори Ноласко, Майкл Или-О фильме:
Бывший полицейский Брайан О`Коннер вместе с напарником Романом Пиарсом собираются перевезти крупную сумму «грязных» денег известного мафиози Картера Верона в качестве его подручных. Но на самом деле эта работа является только прикрытием для Брайана, который вместе с тайным агентом Моникой Клемент должны уличить изворотливого преступника…-Дополнительная информация:
Бюджет: $76 000 000
Маркетинг: $40 000 000
Сборы в США: $127 154 901
Сборы в мире: + $108 886 830 = $236 041 731
Сборы в России: $3 274 772
Премьера (мир) : 3 июня 2003
Премьера (РФ): 21 июля 2003, «Ист-Вест»
Релиз на DVD: 10 марта 2009, «Юниверсал Пикчерс Рус»
Релиз на Blu-Ray: 4 августа 2009, «Юниверсал Пикчерс Рус»
Выпущено: Universal Pictures
Продолжительность: 01:47:35
Перевод: Дублированный-Кодек: x264
Качество: BDRip (источник: Blu-ray Disc)
Видео: 1920x816 (2,35:1), 23.976 fps, 5370 kbps
Звук: 48 kHz, AC-3, 6 ch, 448 kbps
Субтитры: Английские
Размер: 4.37 Gb-

MI


Format : Matroska
File size : 4.37 GiB
Duration : 1h 47mn
Overall bit rate : 5 818 Kbps
Encoded date : UTC 2011-05-15 12:39:38
Writing application : mkvmerge v4.0.0 ('The Stars were mine') сборка от Jun 6 2010 16:18:42
Writing library : libebml v1.0.0 + libmatroska v1.0.0
Video
ID : 1
Format : AVC
Format/Info : Advanced Video Codec
Format profile : [email protected]
Format settings, CABAC : Yes
Format settings, ReFrames : 5 frames
Codec ID : V_MPEG4/ISO/AVC
Duration : 1h 47mn
Bit rate : 5 370 Kbps
Width : 1 920 pixels
Height : 816 pixels
Display aspect ratio : 2.35:1
Frame rate : 23.976 fps
Color space : YUV
Chroma subsampling : 4:2:0
Bit depth : 8 bits
Scan type : Progressive
Bits/(Pixel*Frame) : 0.143
Stream size : 3.95 GiB (90%)
Writing library : x264 core 115 r1995 c1e60b9
Encoding settings : cabac=1 / ref=5 / deblock=1:0:0 / analyse=0x3:0x133 / me=umh / subme=10 / psy=1 / psy_rd=1.00:0.10 / mixed_ref=1 / me_range=24 / chroma_me=1 / trellis=2 / 8x8dct=1 / cqm=0 / deadzone=21,11 / fast_pskip=0 / chroma_qp_offset=-3 / threads=12 / sliced_threads=0 / nr=0 / decimate=1 / interlaced=0 / bluray_compat=0 / constrained_intra=0 / bframes=5 / b_pyramid=2 / b_adapt=2 / b_bias=0 / direct=3 / weightb=1 / open_gop=0 / weightp=2 / keyint=250 / keyint_min=23 / scenecut=40 / intra_refresh=0 / rc_lookahead=60 / rc=2pass / mbtree=1 / bitrate=5370 / ratetol=1.0 / qcomp=0.60 / qpmin=0 / qpmax=69 / qpstep=4 / cplxblur=20.0 / qblur=0.5 / ip_ratio=1.40 / aq=1:1.00
Language : English
Audio
ID : 2
Format : AC-3
Format/Info : Audio Coding 3
Mode extension : CM (complete main)
Codec ID : A_AC3
Duration : 1h 47mn
Bit rate mode : Constant
Bit rate : 448 Kbps
Channel(s) : 6 channels
Channel positions : Front: L C R, Side: L R, LFE
Sampling rate : 48.0 KHz
Bit depth : 16 bits
Compression mode : Lossy
Stream size : 345 MiB (8%)
Language : Russian
Text
ID : 3
Format : UTF-8
Codec ID : S_TEXT/UTF8
Codec ID/Info : UTF-8 Plain Text
Language : English

Скриншоты


--Тройной форсаж: Токийский Дрифт/ The Fast and the Furious: Tokyo Drift- -Год выхода: 2006
Жанр: боевик, триллер, драма, криминал-Режиссер: Джастин Лин-В ролях: Лукас Блэк, Бау Вау, Брайан Ти, Санг Кенг, Брэндон Брендел, Дэниэл Буко, Дэвид Томас, Эмбер Стивенс, Ашика Гонья, Кристиан Салазар-О фильме:-Шон Босуэлл — одинокий парень, который хочет казаться профи уличных гонок. Он бесшабашно гоняется по улицам города, пытаясь убежать от жизненных невзгод и наживая себе врагов среди местных властей. Когда Шону грозит тюрьма, его от греха подальше отсылают к отцу — профессиональному военному, который служит на военной базе в Японии.
В незнакомой стране, живущей по своим законам, Шон чувствует себя еще большим изгоем. Однако вскоре его американский приятель Твинки знакомит его с миром подпольного дрифт-рейсинга. Раньше Шон просто тупо гонялся по улицам, а здесь перед ним открылся целый мир своеобразного искусства из металла и резины, дороги которого оказались невообразимо круты на поворотах…
-Дополнительная информация:
Выпущено: Universal Pictures
Продолжительность: 01:44:14
Перевод: Дублированный-Кодек: x264
Качество: BDRip (источник: Blu-ray Disc)
Видео: 1920x816 (2,35:1), 23.976 fps, 5557 kbps
Звук: 48 kHz, AC-3, 6 ch, 448 kbps
Субтитры: Английские
Размер: 4.37 GB-

MI

Format : Matroska
File size : 4.37 GiB
Duration : 1h 44mn
Overall bit rate : 6 005 Kbps
Encoded date : UTC 2011-05-16 14:06:55
Writing application : mkvmerge v4.0.0 ('The Stars were mine') сборка от Jun 6 2010 16:18:42
Writing library : libebml v1.0.0 + libmatroska v1.0.0
Video
ID : 1
Format : AVC
Format/Info : Advanced Video Codec
Format profile : [email protected]
Format settings, CABAC : Yes
Format settings, ReFrames : 5 frames
Format settings, GOP : M=1, N=24
Codec ID : V_MPEG4/ISO/AVC
Duration : 1h 44mn
Bit rate : 5 557 Kbps
Width : 1 920 pixels
Height : 816 pixels
Display aspect ratio : 2.35:1
Frame rate : 23.976 fps
Color space : YUV
Chroma subsampling : 4:2:0
Bit depth : 8 bits
Scan type : Progressive
Bits/(Pixel*Frame) : 0.148
Stream size : 3.96 GiB (91%)
Writing library : x264 core 115 r1995 c1e60b9
Encoding settings : cabac=1 / ref=5 / deblock=1:0:0 / analyse=0x3:0x133 / me=umh / subme=10 / psy=1 / psy_rd=1.00:0.10 / mixed_ref=1 / me_range=24 / chroma_me=1 / trellis=2 / 8x8dct=1 / cqm=0 / deadzone=21,11 / fast_pskip=0 / chroma_qp_offset=-3 / threads=12 / sliced_threads=0 / nr=0 / decimate=1 / interlaced=0 / bluray_compat=0 / constrained_intra=0 / bframes=5 / b_pyramid=2 / b_adapt=2 / b_bias=0 / direct=3 / weightb=1 / open_gop=0 / weightp=2 / keyint=250 / keyint_min=23 / scenecut=40 / intra_refresh=0 / rc_lookahead=60 / rc=2pass / mbtree=1 / bitrate=5557 / ratetol=1.0 / qcomp=0.60 / qpmin=0 / qpmax=69 / qpstep=4 / cplxblur=20.0 / qblur=0.5 / ip_ratio=1.40 / aq=1:1.00
Language : English
Audio
ID : 2
Format : AC-3
Format/Info : Audio Coding 3
Mode extension : CM (complete main)
Codec ID : A_AC3
Duration : 1h 44mn
Bit rate mode : Constant
Bit rate : 448 Kbps
Channel(s) : 6 channels
Channel positions : Front: L C R, Side: L R, LFE
Sampling rate : 48.0 KHz
Bit depth : 16 bits
Compression mode : Lossy
Stream size : 334 MiB (7%)
Language : Russian
Text
ID : 3
Format : ASS
Codec ID : S_TEXT/ASS
Codec ID/Info : Advanced Sub Station Alpha
Compression mode : Lossless
Language : English
-

Скриншоты


--Форсаж 4/ Fast & Furious- -Год выхода: 2009
Жанр: боевик, триллер, драма, криминал-Режиссер: Джастин Лин-В ролях: Вин Дизель, Пол Уокер, Джордана Брюстер, Мишель Родригес, Джон Ортиз, Лас Алонсо, Гал Гадот, Джек Конли, Ши Уигхэм, Лиза Лапира-О фильме:
Когда кривая дорожка заставляет скрывающегося от правосудия Дома Торетто вернуться в Лос-Анджелес, вражда с агентом Брайаном О’Коннером вспыхивает с новой силой. Но у парочки обнаруживается общий противник, и Дому с Брайаном приходится заключить перемирие в надежде одержать над ним победу. Грабя конвои, роя подкопы и пересекая границы, они приходят к идеальной форме отмщения — педали газа, вдавленной до упора.-Дополнительная информация:
Выпущено:Universal Pictures
Продолжительность: 01:46:45
Перевод: Дублированный-Кодек: x264
Качество: BDRip (источник: Blu-ray Disc)
Видео: 1920x800 (2,40:1), 23.976 fps, 5414 kbps
Звук: 48 kHz, AC-3, 6 ch, 448 kbps
Субтитры: Английские, русские (испанские диалоги)
Размер: 4.37 GB-

MI

Format : Matroska
File size : 4.37 GiB
Duration : 1h 46mn
Overall bit rate : 5 863 Kbps
Encoded date : UTC 2011-05-18 15:11:45
Writing application : mkvmerge v4.0.0 ('The Stars were mine') сборка от Jun 6 2010 16:18:42
Writing library : libebml v1.0.0 + libmatroska v1.0.0
Video
ID : 1
Format : AVC
Format/Info : Advanced Video Codec
Format profile : [email protected]
Format settings, CABAC : Yes
Format settings, ReFrames : 5 frames
Codec ID : V_MPEG4/ISO/AVC
Duration : 1h 46mn
Bit rate : 5 414 Kbps
Width : 1 920 pixels
Height : 800 pixels
Display aspect ratio : 2.40:1
Frame rate : 23.976 fps
Color space : YUV
Chroma subsampling : 4:2:0
Bit depth : 8 bits
Scan type : Progressive
Bits/(Pixel*Frame) : 0.147
Stream size : 3.95 GiB (90%)
Writing library : x264 core 115 r1995 c1e60b9
Encoding settings : cabac=1 / ref=5 / deblock=1:0:0 / analyse=0x3:0x133 / me=umh / subme=10 / psy=1 / psy_rd=1.00:0.10 / mixed_ref=1 / me_range=24 / chroma_me=1 / trellis=2 / 8x8dct=1 / cqm=0 / deadzone=21,11 / fast_pskip=0 / chroma_qp_offset=-3 / threads=12 / sliced_threads=0 / nr=0 / decimate=1 / interlaced=0 / bluray_compat=0 / constrained_intra=0 / bframes=5 / b_pyramid=2 / b_adapt=2 / b_bias=0 / direct=3 / weightb=1 / open_gop=0 / weightp=2 / keyint=250 / keyint_min=23 / scenecut=40 / intra_refresh=0 / rc_lookahead=60 / rc=2pass / mbtree=1 / bitrate=5414 / ratetol=1.0 / qcomp=0.60 / qpmin=0 / qpmax=69 / qpstep=4 / cplxblur=20.0 / qblur=0.5 / ip_ratio=1.40 / aq=1:1.00
Language : English
Audio
ID : 2
Format : AC-3
Format/Info : Audio Coding 3
Mode extension : CM (complete main)
Codec ID : A_AC3
Duration : 1h 46mn
Bit rate mode : Constant
Bit rate : 448 Kbps
Channel(s) : 6 channels
Channel positions : Front: L C R, Side: L R, LFE
Sampling rate : 48.0 KHz
Bit depth : 16 bits
Compression mode : Lossy
Stream size : 342 MiB (8%)
Language : Russian
Text #1
ID : 3
Format : UTF-8
Codec ID : S_TEXT/UTF8
Codec ID/Info : UTF-8 Plain Text
Language : Russian
Text #2
ID : 4
Format : UTF-8
Codec ID : S_TEXT/UTF8
Codec ID/Info : UTF-8 Plain Text
Language : English
--

Скриншоты


--Форсаж 5/ Fast Five- -Год выхода: 2011
Жанр: боевик, триллер, драма, криминал-Режиссер: Джастин Лин-В ролях: Вин Дизель, Пол Уокер, Джордана Брюстер, Тайриз Гибсон, Лудакрис, Эльза Патаки, Галь Гадот, Тего Калдерон, Дон Омар, Мэтт Шульце-О фильме:-Бывший полицейский Брайан О`Коннер вместе с бывалым лихачом Домиником Торетто совсем немного увлеклись жизнью вне закона. После того, как Брайан и Миа Торетто освободили Доминика, они не рискуют долго задерживаться на одном месте, так как являются желанной целью порядком недовольных копов.-Дополнительная информация:
Бюджет: $125 000 000
Сборы в США: $209 837 675
Сборы в мире: + $396 342 815 = $606 180 490
Сборы в России: $29 111 471
Премьера (мир): 15 апреля 2011
Премьера (РФ): 28 апреля 2011, «UPI»
Релиз на Blu-Ray: 25 августа 2011, «Двадцатый Век Фокс СНГ»
Релиз на DVD: 25 августа 2011, «Двадцатый Век Фокс СНГ»
Страна: США

Продолжительность: 02:10:21
Перевод: Дублированный-Кодек: x.264
Качество: BDRip 1080p
Видео: 7582 kb/s, 1920x816, 23.976 fps
Звук: AC3, 448 kb/s (6Ch)-Дублированный AC3, 448 kb/s (6Ch)-Оригинал
Субтитры: Русские, Английские
Сохранены оригинальные чаптеры: Blu-Ray
Размер: 7.75 Gb-

MI

Format : Matroska
File size : 7.75 GiB
Duration : 2h 10mn
Overall bit rate : 8 511 Kbps
Movie name : Форсаж 5 / Fast Five (2011) BDRip 1080p от RG Neofilm
Encoded date : UTC 2011-08-21 05:20:22
Writing application : mkvmerge v4.9.1 ('Ich will') сборка от Jul 11 2011 23:53:15
Writing library : libebml v1.2.1 + libmatroska v1.1.1
Video
ID : 1
Format : AVC
Format/Info : Advanced Video Codec
Format profile : [email protected]
Format settings, CABAC : Yes
Format settings, ReFrames : 5 frames
Codec ID : V_MPEG4/ISO/AVC
Duration : 2h 10mn
Bit rate : 7 582 Kbps
Width : 1 920 pixels
Height : 816 pixels
Display aspect ratio : 2.35:1
Frame rate : 23.976 fps
Color space : YUV
Chroma subsampling : 4:2:0
Bit depth : 8 bits
Scan type : Progressive
Bits/(Pixel*Frame) : 0.202
Stream size : 6.78 GiB (87%)
Title : Форсаж 5 / Fast Five (2011) BDRip 1080p
Writing library : x264 core 115 r1995 c1e60b9
Encoding settings : cabac=1 / ref=5 / deblock=1:-3:-3 / analyse=0x3:0x113 / me=umh / subme=10 / psy=1 / psy_rd=1.00:0.00 / mixed_ref=1 / me_range=48 / chroma_me=1 / trellis=2 / 8x8dct=1 / cqm=0 / deadzone=21,11 / fast_pskip=0 / chroma_qp_offset=-2 / threads=6 / sliced_threads=0 / nr=0 / decimate=0 / interlaced=0 / bluray_compat=0 / constrained_intra=0 / bframes=5 / b_pyramid=2 / b_adapt=2 / b_bias=0 / direct=3 / weightb=1 / open_gop=0 / weightp=2 / keyint=250 / keyint_min=23 / scenecut=40 / intra_refresh=0 / rc_lookahead=40 / rc=2pass / mbtree=1 / bitrate=7582 / ratetol=1.0 / qcomp=0.60 / qpmin=10 / qpmax=51 / qpstep=4 / cplxblur=20.0 / qblur=0.5 / ip_ratio=1.40 / aq=1:1.00
Language : English
Audio #1
ID : 2
Format : AC-3
Format/Info : Audio Coding 3
Mode extension : CM (complete main)
Codec ID : A_AC3
Duration : 2h 10mn
Bit rate mode : Constant
Bit rate : 448 Kbps
Channel(s) : 6 channels
Channel positions : Front: L C R, Side: L R, LFE
Sampling rate : 48.0 KHz
Bit depth : 16 bits
Compression mode : Lossy
Stream size : 418 MiB (5%)
Title : Дублированный
Language : Russian
Audio #2
ID : 3
Format : AC-3
Format/Info : Audio Coding 3
Mode extension : CM (complete main)
Codec ID : A_AC3
Duration : 2h 10mn
Bit rate mode : Constant
Bit rate : 448 Kbps
Channel(s) : 6 channels
Channel positions : Front: L C R, Side: L R, LFE
Sampling rate : 48.0 KHz
Bit depth : 16 bits
Compression mode : Lossy
Stream size : 418 MiB (5%)
Title : Оригинал
Language : English
Text #1
ID : 4
Format : PGS
Codec ID : S_HDMV/PGS
Codec ID/Info : The same subtitle format used on BDs/HD-DVDs
Title : Ru.Forced
Language : Russian
Text #2
ID : 5
Format : PGS
Codec ID : S_HDMV/PGS
Codec ID/Info : The same subtitle format used on BDs/HD-DVDs
Title : Eng.Forced
Language : English
Text #3
ID : 6
Format : PGS
Codec ID : S_HDMV/PGS
Codec ID/Info : The same subtitle format used on BDs/HD-DVDs
Title : Eng.Full
Language : English
Menu
00:00:00.000 : :Chapter 1
00:07:45.715 : :Chapter 2
00:17:29.465 : :Chapter 3
00:23:01.838 : :Chapter 4
00:28:21.574 : :Chapter 5
00:34:55.635 : :Chapter 6
00:40:46.318 : :Chapter 7
00:48:41.585 : :Chapter 8
00:55:20.317 : :Chapter 9
01:03:09.952 : :Chapter 10
01:10:44.657 : :Chapter 11
01:18:25.867 : :Chapter 12
01:22:36.201 : :Chapter 13
01:27:58.731 : :Chapter 14
01:31:53.424 : :Chapter 15
01:39:13.322 : :Chapter 16
01:47:00.747 : :Chapter 17
01:54:50.133 : :Chapter 18
01:59:15.231 : :Chapter 19
02:03:24.396 : :Chapter 20
02:10:21.021 : :Chapter 21
-

Скриншоты


--Форсаж 6 / Fast & Furious 6 [EXTENDED]
- -Год выхода: 2013
Жанр: боевик, триллер, драма, криминал
Выпущено: США / Universal Pictures, Relativity Media, Original Film
Продолжительность: 02:11:02
Перевод:Дублированный (iTunes Russia)-Режиссер: Джастин Лин-В ролях: Вин Дизель, Дуэйн Джонсон, Пол Уокер, Люк Эванс, Мишель Родригес, Джина Карано, Джордана Брюстер, Эльса Патаки, Гал Гадот, Тайрез Гибсон, Cанг Кенг, Лудакрис, Джо Таслим, Пол Блэкуэлл-Описание:
После того как Доминик и Брайн побывали в Рио, где они ограбили и свергли империю вора в законе, их команда получила 100 миллионов, и наши герои оказались разбросаны по всему миру. Но их привычка вечно жить в бегах не даёт им покоя. Между тем, Хоббс отслеживал организацию смертельно опасных наёмников-водителей по двенадцати странам. Единственный способ остановить эту криминальную группу — это превзойти их на улицах, поэтому Хоббс просит Дома собрать его элитную команду в Лондоне. За это он обещает полное помилование для Доминика и его друзей, чтобы они смогли наконец вернуться домой к своей семье.-Формат: MKV (H.264)
Качество: BDRip 1080p
Видео: 11700 Kb/s, 1920x800 (2.40:1), 23.976 fps
Аудио: Russian AC3, 384 kb/s (6 ch) / English: AC3, 384 kb/s (6 ch)
Субтитры: Русские (Forced/Full), Английские
Размер:11.7 Gb

Дополнительная информация о релизе

На непереведенные места расширенной версии – русские форсированные субтитры.
-

Media Info

General
Unique ID : 173505370461140838490703185302810734309 (0x8287EB39A49678FCA024B1A022772EE5)
Complete name : C:\Fast.and.Furious.6.2013.DUAL.Extended.BDRip.1080p.CoolDX.mkv
Format : Matroska
Format version : Version 2
File size : 11.7 GiB
Duration : 2h 11mn
Overall bit rate mode : Variable
Overall bit rate : 12.8 Mbps
Movie name : Fast and Furious 6 (2013) Extended | Release from CoolDX
Encoded date : UTC 2013-09-11 13:36:57
Writing application : mkvmerge v4.2.0 ('No Talking') сборка от Jul 28 2010 18:38:23
Writing library : libebml v1.0.0 + libmatroska v1.0.0
Video #1
ID : 1
Format : AVC
Format/Info : Advanced Video Codec
Format profile : [email protected]
Format settings, CABAC : No
Format settings, ReFrames : 1 frame
Format settings, GOP : M=1, N=12
Muxing mode : Header stripping
Codec ID : V_MPEG4/ISO/AVC
Duration : 2h 11mn
Bit rate mode : Variable
Bit rate : 11.7 Mbps
Maximum bit rate : 18.0 Mbps
Width : 1 920 pixels
Height : 800 pixels
Display aspect ratio : 2.40:1
Frame rate mode : Constant
Frame rate : 23.976 fps
Original frame rate : 24.000 fps
Color space : YUV
Chroma subsampling : 4:2:0
Bit depth : 8 bits
Scan type : Progressive
Bits/(Pixel*Frame) : 0.319
Stream size : 10.7 GiB (92%)
Title : Release from CoolDX
Language : English
Default : Yes
Forced : No
Audio #2
ID : 2
Format : AC-3
Format/Info : Audio Coding 3
Mode extension : CM (complete main)
Format settings, Endianness : Big
Muxing mode : Header stripping
Codec ID : A_AC3
Duration : 2h 11mn
Bit rate mode : Constant
Bit rate : 384 Kbps
Channel(s) : 6 channels
Channel positions : Front: L C R, Side: L R, LFE
Sampling rate : 48.0 KHz
Bit depth : 16 bits
Compression mode : Lossy
Stream size : 360 MiB (3%)
Title : AC3 5.1 @ 384 kbps RUS
Language : Russian
Default : Yes
Forced : No
Audio #3
ID : 3
Format : AC-3
Format/Info : Audio Coding 3
Mode extension : CM (complete main)
Format settings, Endianness : Big
Muxing mode : Header stripping
Codec ID : A_AC3
Duration : 2h 11mn
Bit rate mode : Constant
Bit rate : 384 Kbps
Channel(s) : 6 channels
Channel positions : Front: L C R, Side: L R, LFE
Sampling rate : 48.0 KHz
Bit depth : 16 bits
Compression mode : Lossy
Stream size : 360 MiB (3%)
Title : AC3 5.1 @ 384 kbps ENG
Language : English
Default : No
Forced : No
Text #4
ID : 4
Format : UTF-8
Codec ID : S_TEXT/UTF8
Codec ID/Info : UTF-8 Plain Text
Title : Forced
Language : Russian
Default : Yes
Forced : No
Text #5
ID : 5
Format : UTF-8
Codec ID : S_TEXT/UTF8
Codec ID/Info : UTF-8 Plain Text
Title : Full
Language : Russian
Default : No
Forced : No
Text #6
ID : 6
Format : UTF-8
Codec ID : S_TEXT/UTF8
Codec ID/Info : UTF-8 Plain Text
Title : Full
Language : English
Default : No
Forced : No
-

Скриншоты



Создавать темы 16-Сен-2013 18:23

[Профиль]  [ЛС] 

Sinatro

Стаж: 5 лет 7 месяцев

Сообщений: 117

Симпатии: 2

Ты уверен что это квадрология???Квадрология это 4 фильма а не 6!!!

Создавать темы 16-Сен-2013 19:54

[Профиль]  [ЛС] 

Mercuriy

Стаж: 5 лет 9 месяцев

Сообщений: 418

Симпатии: 100

Да уж словно беспридел какойто, тута не Тройной форсаж а тройной повтор Договорились чтоли mc :
1) Форсаж 6 / Fast & Furious 6 (Джастин Лин) [2013 г., боевик, триллер, драма, криминал, BDRip 1080p] Extended [Лицензия/iTunes] от Sonatrek ® он же CoolDX

Список файлов

Fast.and.Furious.6.2013.DUAL.Extended.BDRip.1080p.CoolDX.mkv 11.68 GB (12544269718)
2)Форсаж / The Fast and the Furious "Золотая коллекция" [2001-2011г., боевик, триллер, драма, криминал., BDRip 1080р]

Список файлов

The.Fast Five.mkv 7.74 GB (8321320764)
Двойной форсаж - 2 Fast 2 Furious (2003) BDRip 1080p.mkv 4.37 GB (4695158757)
Тройной форсаж Токийский Дрифт - The Fast and the Furious Tokyo Drift (2006) BDRip 1080p.mkv 4.37 GB (4694686197)
Форсаж - The Fast and the Furious (2001) BDRip 1080p.mkv 4.37 GB (4695894900)
Форсаж 4 Fast & Furious (2009) BDRip 1080p.mkv 4.37 GB (4694548086)
3) Форсаж Антология - The Fast & Furious Antology (Роб Коэн, Джон Синглтон, Джастин Лин) [2001-2003-2006-2009-2011-2013 г.г, Боевик / Триллер / Драма / Криминал, BDRip 1080р]

Список файлов

Форсаж 1 - The Fast & Furious 1 BDRip 1080p.mkv 4.37 GB (4695894900)
Форсаж 2 Двойной форсаж - The Fast & Furious 2 Double furious BDRip 1080p.mkv 4.37 GB (4695158757)
Форсаж 3 Тройной форсаж Токийский Дрифт - The Fast & Furious 3 Tokyo drift BDRip 1080p.mkv 4.37 GB (4694686197)
Форсаж 4 - The Fast & Furious 4 BDRip 1080p.mkv 4.37 GB (4694548086)
Форсаж 5 - The Fast & Furious 5 BDRip 1080p.mkv 7.74 GB (8321320764)
Форсаж 6 - The Fast & Furious 6 BDRip 1080p.mkv 4.88 GB (5246287541)

Создавать темы 16-Сен-2013 21:14

[Профиль]  [ЛС] 
Показать сообщения:    
Ответить на тему

Текущее время: 24-Авг 02:18

Часовой пояс: UTC + 5



Вы не можете начинать темы
Вы не можете отвечать на сообщения
Вы не можете редактировать свои сообщения
Вы не можете удалять свои сообщения
Вы не можете голосовать в опросах
Вы не можете прикреплять файлы к сообщениям
Вы не можете скачивать файлы