Если хочешь хорошо провести время, звони… (HD 720p) / For a Good Time, Call... (HD 720p) (Джеми Трэвис) [2012 г., Комедия, HDRip-AVC]

Ответить на тему
 

Nosferatu ®

Стаж: 4 года 6 месяцев

Сообщений: 79

Симпатии: 5

Если хочешь хорошо провести время, звони… (HD 720p)
For a Good Time, Call... (HD 720p)


Год выпуска: 2012
Страна: США
Жанр: Комедия
Продолжительность: 01:27:27
Перевод: Профессиональный (полное дублирование)-Режиссер: Джеми Трэвис-В ролях:
Джастин Лонг, Мими Роджерс, Эри Грейнор, Дон МакМанус, Лорен Миллер, Джеймс Волк, Лоуренс Мэндли, Эдди Геллер, Джош Рубен, Стивен Шоу-Описание:
Две молодые девушки запускают собственный бизнес, представляющий собой предоставление услуг секса по телефону.-Доп. информация:
Бюджет: $850 000
Рейтинг КиноПоиск.Ru: 5.622 (1198)
Рейтинг IMDb: 5.8 (6946)-Качество: HDRip-AVC
Формат: MKV
Видео: MP4 (H264) 1280x544 23.976fps 4 144 Kbps-Audio #1: AC-3, 384 Kbps, 6 channels, 48.0 KHz, Russian
Audio #2: DTS, 1 509 Kbps, 6 channels, 48.0 KHz, English-Subtitle:
Text #1: UTF-8, Russian
Text #2: UTF-8, Russian
Text #3: UTF-8, English
Text #4: UTF-8, English
Text #5: UTF-8, English
Text #6: UTF-8, English
-

M/I

Format : Matroska
Format version : Version 2
File size : 3.76 GiB
Duration : 1h 27mn
Overall bit rate : 6 159 Kbps
Movie name : For a Good Time, Call... (2012) [UNRATED] - Release for HDCLUB
Encoded date : UTC 2013-08-05 11:30:41
Writing application : mkvmerge v3.4.0 ('Rapunzel') built on May 15 2010 09:38:20
Writing library : libebml v0.8.0 + libmatroska v0.9.0
Video
ID : 1
Format : AVC
Format/Info : Advanced Video Codec
Format profile : [email protected]
Format settings, CABAC : Yes
Format settings, ReFrames : 12 frames
Codec ID : V_MPEG4/ISO/AVC
Duration : 1h 27mn
Bit rate : 4 144 Kbps
Width : 1 280 pixels
Height : 544 pixels
Display aspect ratio : 2.35:1
Frame rate mode : Constant
Frame rate : 23.976 fps
Color space : YUV
Chroma subsampling : 4:2:0
Bit depth : 8 bits
Scan type : Progressive
Bits/(Pixel*Frame) : 0.248
Stream size : 2.53 GiB (67%)
Title : For a Good Time, Call... (2012) [UNRATED] - Release for HDCLUB
Writing library : x264 core 128 r2216kMod 198a7ea
Encoding settings : cabac=1 / ref=12 / deblock=1:-3:-3 / analyse=0x3:0x133 / me=umh / subme=9 / psy=1 / fade_compensate=0.00 / psy_rd=1.15:0.00 / mixed_ref=1 / me_range=64 / chroma_me=1 / trellis=2 / 8x8dct=1 / cqm=0 / deadzone=21,11 / fast_pskip=0 / chroma_qp_offset=-2 / threads=12 / lookahead_threads=2 / sliced_threads=0 / nr=0 / decimate=0 / interlaced=0 / bluray_compat=0 / constrained_intra=0 / bframes=8 / b_pyramid=2 / b_adapt=2 / b_bias=0 / direct=3 / weightb=1 / open_gop=0 / weightp=2 / keyint=250 / keyint_min=23 / scenecut=40 / intra_refresh=0 / rc=crf / mbtree=0 / crf=17.0000 / qcomp=0.80 / qpmin=0 / qpmax=69 / qpstep=4 / ip_ratio=1.25 / pb_ratio=1.20 / aq=2:0.85
Language : English
Default : Yes
Forced : No
Audio #1
ID : 2
Format : AC-3
Format/Info : Audio Coding 3
Mode extension : CM (complete main)
Format settings, Endianness : Big
Codec ID : A_AC3
Duration : 1h 27mn
Bit rate mode : Constant
Bit rate : 384 Kbps
Channel(s) : 6 channels
Channel positions : Front: L C R, Side: L R, LFE
Sampling rate : 48.0 KHz
Bit depth : 16 bits
Compression mode : Lossy
Stream size : 240 MiB (6%)
Title : AC3 5.1 @ 384 kbps - DUB, iTunes
Language : Russian
Default : Yes
Forced : No
Audio #2
ID : 3
Format : DTS
Format/Info : Digital Theater Systems
Mode : 16
Format settings, Endianness : Big
Codec ID : A_DTS
Duration : 1h 27mn
Bit rate mode : Constant
Bit rate : 1 509 Kbps
Channel(s) : 6 channels
Channel positions : Front: L C R, Side: L R, LFE
Sampling rate : 48.0 KHz
Bit depth : 24 bits
Compression mode : Lossy
Delay relative to video : 11ms
Stream size : 944 MiB (24%)
Title : DTS 5.1 @ 1536 kbps
Language : English
Default : No
Forced : No
Text #1
ID : 4
Format : UTF-8
Codec ID : S_TEXT/UTF8
Codec ID/Info : UTF-8 Plain Text
Title : Forced
Language : Russian
Default : Yes
Forced : No
Text #2
ID : 5
Format : UTF-8
Codec ID : S_TEXT/UTF8
Codec ID/Info : UTF-8 Plain Text
Language : Russian
Default : No
Forced : No
Text #3
ID : 6
Format : UTF-8
Codec ID : S_TEXT/UTF8
Codec ID/Info : UTF-8 Plain Text
Title : SDH, iTunes
Language : English
Default : No
Forced : No
Text #4
ID : 7
Format : UTF-8
Codec ID : S_TEXT/UTF8
Codec ID/Info : UTF-8 Plain Text
Language : English
Default : No
Forced : No
Text #5
ID : 8
Format : UTF-8
Codec ID : S_TEXT/UTF8
Codec ID/Info : UTF-8 Plain Text
Title : SDH
Language : English
Default : No
Forced : No
Text #6
ID : 9
Format : UTF-8
Codec ID : S_TEXT/UTF8
Codec ID/Info : UTF-8 Plain Text
Title : SDH-COLORED
Language : English
Default : No
Forced : No
Menu
00:00:00.000 : en:01
00:03:13.735 : en:02
00:06:27.095 : en:03
00:10:36.594 : en:04
00:15:03.277 : en:05
00:19:03.892 : en:06
00:26:31.047 : en:07
00:30:44.551 : en:08
00:36:54.253 : en:09
00:42:29.880 : en:10
00:46:57.731 : en:11
00:51:22.245 : en:12
00:55:27.699 : en:13
00:58:14.324 : en:14
01:02:24.991 : en:15
01:06:46.377 : en:16
01:10:29.600 : en:17
01:15:02.289 : en:18
01:18:54.312 : en:19
01:24:10.420 : en:20
01:27:26.991 : en:01:27:26.991

Скриншоты














Последний раз редактировалось: Nosferatu (2013-09-16 20:21), всего редактировалось 1 раз

Создавать темы 16-Сен-2013 19:23

[Профиль]  [ЛС] 

Ma4ete

Стаж: 6 лет 8 месяцев

Сообщений: 166

Симпатии: 23

о как налетели.
tp tf

Создавать темы 16-Сен-2013 20:19

[Профиль]  [ЛС] 

Топик был перенесен из форума Фильмы за 2013 (новинки) в форум HD-AVC

СтАсИкОс

Создавать темы 16-Сен-2013 20:21

 

Bartolomeo

Стаж: 5 лет 8 месяцев

Сообщений: 26

Весь фильм в скриншотах уже посмотрел!

Создавать темы 16-Сен-2013 23:51

[Профиль]  [ЛС] 

Дмитриев

Стаж: 7 лет 3 месяца

Сообщений: 139

Симпатии: 12

Nosferatu молочина теперь есть чё будет по качать

Создавать темы 17-Сен-2013 00:02

[Профиль]  [ЛС] 

Don_OmaR

Стаж: 5 лет 6 месяцев

Сообщений: 90

Симпатии: 5

Весь фильм в скриншотах уже посмотрел!
Согласен.=)))

Создавать темы 17-Сен-2013 07:59

[Профиль]  [ЛС] 
Показать сообщения:    
Ответить на тему

Текущее время: 22-Сен 13:16

Часовой пояс: UTC + 5



Вы не можете начинать темы
Вы не можете отвечать на сообщения
Вы не можете редактировать свои сообщения
Вы не можете удалять свои сообщения
Вы не можете голосовать в опросах
Вы не можете прикреплять файлы к сообщениям
Вы не можете скачивать файлы