Кобра / Cobra (Джордж П. Косматос) [1986 г., боевик, триллер, BDRip-AVC]

Ответить на тему
 

PIXEL 100 ®

Стаж: 4 года 4 месяца

Сообщений: 49

Симпатии: 8

Кобра / Cobra
«Преступность-это болезнь. Встречайте врача.»
«The strong arm of the law.»
Год выпуска: 1986
Страна: США
Жанр: боевик, триллер
Продолжительность: 01:27:06
Перевод: Профессиональный (полное дублирование)
Режиссер: Джордж П. Косматос
В ролях: Сильвестр Сталлоне, Бриджит Нильсен, Рени Сантони, Эндрю Робинсо, Брайан Томпсон, Джон Херцфелд, Ли Гарлингтон, Арт ЛаФлёр, Марко Родригес, Росс Ст. Филлип...-Описание: Он — «Кобра» — штурмовой отряд полиции из одного человека, ему достаётся кровавая работёнка,
за которую никто не хочет (или не осмеливается) взяться. Он выходит на след убийцы, за которым
целая армия преступников-маньяков, стремящихся уничтожить свидетельницу их кровавой вакханалии.
Но, к счастью, она попадает под защиту «Кобры».-Качество: BDRip-AVC
Формат: MKV
Видео кодек: H.264
Аудио кодек: AC3
Видео: MPEG4 Video (H264) 720x480 / 2 705 Kbps / 29.97fps
Аудио #1: Russian Dolby AC3 / 48000Hz 6ch / 384 Kbps
Аудио #2: English Dolby AC3 / 48000Hz 6ch / 384 Kbps-

Media info

Format : Matroska
Format version : Version 4 / Version 2
File size : 1.65 GiB
Duration : 1h 27mn
Overall bit rate : 2 705 Kbps
Encoded date : UTC 2013-09-15 18:35:42
Writing application : mkvmerge v6.3.0
Writing library : libebml v1.3.0 + libmatroska v1.4.0
Video
ID : 1
Format : AVC
Format/Info : Advanced Video Codec
Format profile : [email protected]
Format settings, CABAC : Yes
Format settings, ReFrames : 1 frame
Codec ID : V_MPEG4/ISO/AVC
Duration : 1h 27mn
Bit rate : 1 933 Kbps
Width : 720 pixels
Height : 480 pixels
Display aspect ratio : 3:2
Frame rate mode : Constant
Frame rate : 29.970 fps
Standard : NTSC
Color space : YUV
Chroma subsampling : 4:2:0
Bit depth : 8 bits
Scan type : Progressive
Bits/(Pixel*Frame) : 0.187
Stream size : 1.15 GiB (70%)
Writing library : x264 core 129
Title : Оригинал
Language : English
Default : Yes
Forced : No
Audio #1
ID : 2
Format : AC-3
Format/Info : Audio Coding 3
Mode extension : CM (complete main)
Format settings, Endianness : Big
Codec ID : A_AC3
Duration : 1h 27mn
Bit rate mode : Constant
Bit rate : 384 Kbps
Channel(s) : 6 channels
Channel positions : Front: L C R, Side: L R, LFE
Sampling rate : 48.0 KHz
Bit depth : 16 bits
Compression mode : Lossy
Stream size : 239 MiB (14%)
Title : Профессиональный (полное дублирование)
Language : Russian
Default : No
Forced : No
Audio #2
ID : 3
Format : AC-3
Format/Info : Audio Coding 3
Mode extension : CM (complete main)
Format settings, Endianness : Big
Codec ID : A_AC3
Duration : 1h 27mn
Bit rate mode : Constant
Bit rate : 384 Kbps
Channel(s) : 6 channels
Channel positions : Front: L C R, Side: L R, LFE
Sampling rate : 48.0 KHz
Bit depth : 16 bits
Compression mode : Lossy
Stream size : 239 MiB (14%)
Title : Оригинал
Language : English
Default : Yes
Forced : No

Скриншоты

Создавать темы 16-Сен-2013 20:19

[Профиль]  [ЛС] 

one-two

Стаж: 7 лет 3 месяца

Сообщений: 24

блин где сиды?

Создавать темы 03-Авг-2014 15:51

[Профиль]  [ЛС] 
Показать сообщения:    
Ответить на тему

Текущее время: 27-Сен 02:06

Часовой пояс: UTC + 5



Вы не можете начинать темы
Вы не можете отвечать на сообщения
Вы не можете редактировать свои сообщения
Вы не можете удалять свои сообщения
Вы не можете голосовать в опросах
Вы не можете прикреплять файлы к сообщениям
Вы не можете скачивать файлы