Семейка Крудс / The Croods (Кирк де Микко, Крис Сандерс) [2013 г., мультфильм, комедия, приключения, семейный, BDRip-AVC][лицензия]

Ответить на тему
 

MeeZanTrop ®

Стаж: 5 лет 6 месяцев

Сообщений: 87

Симпатии: 8

-«Если они не эволюционируют, то станут историей»- Год выпуска: 2013
Страна: США / DreamWorks Animation, 20th Century Fox
Жанр: мультфильм, комедия, приключения, семейный
Продолжительность: 01:38:36
Перевод: Профессиональный (полное дублирование) [лицензия]-Режиссер: Кирк де Микко, Крис Сандерс-Роли озвучивали::
Николас Кейдж (Дмитрий Назаров), Эмма Стоун (Нюша Шурочкина), Райан Рейнольдс (Егор Дружинин), Клорис Личмен (Александра Назарова), Кларк Дьюк (Руслан Мещанов), Крис Сандерс, Кэтрин Кинер-Описание: Землетрясение уничтожило дом доисторической семьи, и теперь Крудсам придётся искать другое пристанище. А вокруг новый и опасный мир! Им на помощь приходит молодой кочевник Малой, передовые взгляды которого наталкиваются на консервативность главы семьи Груга. Но только вместе они смогут выжить и достичь своей цели…-Качество: BDRip-AVC
Формат: MKV
Видео кодек: H.264
Аудио кодек: AC3
Видео: 1658 Kb/s, 1024x432
Аудио: 448 kb/s (6 ch)-рейтинг фильма :
 

MediaInfo

Semejka.Kruds.2013.D.BDRip.AVC.1.45GB.mkv
General
UniqueID : 242241622032910790899398837127510642528 (0xB63E0A13D34E2734ACD26AC3C06E4F60)
Complete name : Semejka.Kruds.2013.D.BDRip.AVC.1.45GB.mkv
Format : Matroska
File size : 1.45 GiB
Duration : 1h 38mn
Overall bit rate : 2 108 Kbps
Movie name : Rip by 03nazar03
Encoded date : UTC 2013-09-16 07:22:08
Writing application : mkvmerge v6.1.0 ('Old Devil') built on Mar 4 2013 09:10:42
Writing library : libebml v1.3.0 + libmatroska v1.4.0
Video #1
ID : 1
Format : AVC
Format/Info : Advanced Video Codec
Format profile : [email protected]
Format settings, CABAC : Yes
Format settings, ReFrames : 9 frames
Codec ID : V_MPEG4/ISO/AVC
Duration : 1h 38mn
Bit rate : 1 658 Kbps
Width : 1 024 pixels
Height : 432 pixels
Display aspect ratio : 2.35:1
Frame rate : 23.976 fps
Color space : YUV
Chroma subsampling : 4:2:0
Bit depth : 8 bits
Scan type : Progressive
Bits/(Pixel*Frame) : 0.156
Stream size : 1.11 GiB (77%)
Writing library : x264 core 130 r2273 b3065e6
Encoding settings : cabac=1 / ref=9 / deblock=1:-3:-3 / analyse=0x3:0x133 / me=esa / subme=11 / psy=1 / psy_rd=1.00:0.20 / mixed_ref=1 / me_range=48 / chroma_me=1 / trellis=2 / 8x8dct=1 / cqm=0 / deadzone=21,11 / fast_pskip=0 / chroma_qp_offset=-3 / threads=12 / lookahead_threads=2 / sliced_threads=0 / nr=0 / decimate=0 / interlaced=0 / bluray_compat=0 / constrained_intra=0 / bframes=10 / b_pyramid=2 / b_adapt=2 / b_bias=0 / direct=3 / weightb=1 / open_gop=0 / weightp=2 / keyint=250 / keyint_min=23 / scenecut=40 / intra_refresh=0 / rc=2pass / mbtree=0 / bitrate=1658 / ratetol=1.0 / qcomp=0.60 / qpmin=0 / qpmax=69 / qpstep=4 / cplxblur=20.0 / qblur=0.5 / ip_ratio=1.40 / pb_ratio=1.30 / aq=1:1.00
Audio #2
ID : 2
Format : AC-3
Format/Info : Audio Coding 3
Mode extension : CM (complete main)
Codec ID : A_AC3
Duration : 1h 38mn
Bit rate mode : Constant
Bit rate : 448 Kbps
Channel(s) : 6 channels
Channel positions : Front: L C R, Side: L R, LFE
Sampling rate : 48.0 KHz
Bit depth : 16 bits
Compression mode : Lossy
Stream size : 316 MiB (21%)

Скриншоты








Последний раз редактировалось: MeeZanTrop (2013-09-17 17:59), всего редактировалось 1 раз

Создавать темы 17-Сен-2013 14:39

[Профиль]  [ЛС] 

adsllex

Стаж: 5 лет 6 месяцев

Сообщений: 36

Симпатии: 2

Автору Спасибо!
Можете подсказать когда будет релиз в Фул ХД?

Создавать темы 28-Сен-2013 21:31

[Профиль]  [ЛС] 
Показать сообщения:    
Ответить на тему

Текущее время: 19-Авг 08:45

Часовой пояс: UTC + 5



Вы не можете начинать темы
Вы не можете отвечать на сообщения
Вы не можете редактировать свои сообщения
Вы не можете удалять свои сообщения
Вы не можете голосовать в опросах
Вы не можете прикреплять файлы к сообщениям
Вы не можете скачивать файлы