Возвращение волшебников: Алекс против Алекс / The Wizards Return: Alex vs. Alex (Виктор Гонзалез) [2013 г., фэнтези, драма, комедия, приключения, семейный, WEB-DLRip]

Ответить на тему
 

xamidxikmat ®

Стаж: 4 года 11 месяцев

Сообщений: 14

Симпатии: 2

Возвращение волшебников: Алекс против Алекс / The Wizards Return: Alex vs. Alex
Год выпуска: 2013
Страна: США
Жанр: фэнтези, комедия, приключения, семейный
Продолжительность: 00:58:40
Перевод: Профессиональный (полное дублирование)
Режиссер: Виктор Гонзалез
В ролях: Селена Гомес, Бо Мирчофф, Джейк Т. Остин, Дженнифер Стоун, Мария Кэнелс-Баррера, Дэвид ДеЛуис, Грегг Салкин, Винс Фалзон, Никки Хан, Эвелин Илиопулос
Описание: Руссо вместе с друзьями отправились в Тоскану - на историческую родину, повидаться с дальними родственниками. Однако непоседа Алекс, желая доказать, что она - нечто большее, чем просто беззаботная юная волшебница, случайно наложила на себя довольно необычное древнее заклятие: ее сущность разделилась на две противоположные половины, Злую Алекс и, соответственно, Добрую. Так что теперь, пока Злой двойник строит планы по захвату всего Мира, настоящая юная кудесница вынуждена не только ее усмирять - на вершине Пизанской Башни - но и попутно разбираться с собственными родственниками.
Доп. информация: Сценарий: Тодд Дж. Гриволд, Бен Монтанио, Винс Чунг
Продюсер: Грег Хэмпсон, Винс Чунг, Дэн Кросс
Оператор: Том Экелберри
Композитор: Кеннет Бургомастер
Художник: Майкл Хайнс, Марисса Борсетто, Джуди Джованни
Монтаж: Коул Кеннеди
Качество:WEB-DLRip
Формат: AVI
Видео кодек: XviD
Аудио кодек: MPEG Audio
Видео: Video: 720x400, 23.976 fps, ~ 1526 Kbit/s
Аудио: Audio: 44100 Hz, 2 каналов, 128 kbit/s

Скриншоты



MediaInfo

General
Complete name : D:\kino\мультфилм\Возвращение волшебников Алекс против Алекс_The Wizards Return Alex vs. Alex.avi
Format : AVI
Format/Info : Audio Video Interleave
File size : 698 MiB
Duration : 58mn 39s
Overall bit rate : 1 664 Kbps
Writing application : VirtualDubMod 1.5.10.2 (build 2540/release)
Writing library : VirtualDubMod build 2540/release
Video
ID : 0
Format : MPEG-4 Visual
Format profile : Advanced [email protected]
Format settings, BVOP : Yes
Format settings, QPel : No
Format settings, GMC : No warppoints
Format settings, Matrix : Default (MPEG)
Codec ID : XVID
Codec ID/Hint : XviD
Duration : 58mn 39s
Bit rate : 1 527 Kbps
Width : 720 pixels
Height : 400 pixels
Display aspect ratio : 16:9
Frame rate : 23.976 fps
Resolution : 8 bits
Colorimetry : 4:2:0
Scan type : Progressive
Bits/(Pixel*Frame) : 0.221
Stream size : 641 MiB (92%)
Writing library : XviD 1.2.1 (UTC 2008-12-04)
Audio
ID : 1
Format : MPEG Audio
Format version : Version 1
Format profile : Layer 3
Codec ID : 55
Codec ID/Hint : MP3
Duration : 58mn 39s
Bit rate mode : Constant
Bit rate : 128 Kbps
Channel(s) : 2 channels
Sampling rate : 44.1 KHz
Stream size : 53.7 MiB (8%)
Alignment : Split accross interleaves
Interleave, duration : 42 ms (1.00 video frame)
Interleave, preload duration : 500 ms


Последний раз редактировалось: xamidxikmat (2014-03-02 17:05), всего редактировалось 2 раз(а)

Создавать темы 18-Сен-2013 17:10

[Профиль]  [ЛС] 

Don_OmaR

Стаж: 5 лет 5 месяцев

Сообщений: 90

Симпатии: 5

Опять она тут, чё она в актрисы записалась)

Создавать темы 18-Сен-2013 19:21

[Профиль]  [ЛС] 

Danzo.Lol

Стаж: 5 лет 2 месяца

Сообщений: 58

пусть она в п..но снимется , байду какую то гонит все время !

Создавать темы 19-Сен-2013 18:24

[Профиль]  [ЛС] 

aleksman

Стаж: 6 лет 1 месяц

Сообщений: 52

Симпатии: 2

она сначала актриса а потом певичка
уж лучше пусть снимается чем поёт

Создавать темы 19-Сен-2013 19:43

[Профиль]  [ЛС] 

tanuki

Стаж: 3 года 10 месяцев

Сообщений: 60

Симпатии: 3

Ничего, замуж выйдет а там и Голливуд вздохнет спокойно.

Создавать темы 10-Ноя-2013 03:52

[Профиль]  [ЛС] 

X3JumperRaZ0R

Стаж: 5 лет 1 месяц

Сообщений: 177

Симпатии: 151

Фильмы С У4астием Селены Нето Выходят Как Её В фильмы берут непонемаю Пусть Лутше Дальше Свои Клипы Снемает Ито Лутше...

Создавать темы 11-Ноя-2013 16:48

[Профиль]  [ЛС] 

жавочир

Стаж: 4 года 3 месяца

Сообщений: 23

Симпатии: 1

скорость дайте

Создавать темы 12-Дек-2013 20:38

[Профиль]  [ЛС] 

Лило

Стаж: 5 лет 4 месяца

Сообщений: 3

ой,все прям такие умные

Создавать темы 14-Дек-2013 12:20

[Профиль]  [ЛС] 

Alisher_tash

Стаж: 3 года 9 месяцев

Сообщений: 4

ТВ 3 ил норм фильм?

Создавать темы 14-Дек-2013 12:46

[Профиль]  [ЛС] 

Loky

Стаж: 4 года 1 месяц

Сообщений: 75

Симпатии: 8

Интересный факт если не знаешь что такое ТВ3 не пиши иначе засмеют! принципе ТВ3 это ужасы но стрем! а такого рода фильмы это бурда но для кого как у каждого свое мнение! А если все же наслушался что везде профы спрашивают тв3 или нет?! То будь добр читай Жанр фильма если ужас или триллер то пиши а здесь он "Жанр: фэнтези, драма, комедия, приключения, семейный" Так что....
P.S: Не хочу никого обижать это так мысли вслух!

Создавать темы 08-Янв-2014 03:01

[Профиль]  [ЛС] 

Hybrid Theory

Стаж: 6 лет 8 месяцев

Сообщений: 27

Симпатии: 3

ТВ 3 ил норм фильм?
ТВ 1000 епта))
Интересный факт если не знаешь что такое ТВ3 не пиши иначе засмеют! принципе ТВ3 это ужасы но стрем! а такого рода фильмы это бурда но для кого как у каждого свое мнение! А если все же наслушался что везде профы спрашивают тв3 или нет?! То будь добр читай Жанр фильма если ужас или триллер то пиши а здесь он "Жанр: фэнтези, драма, комедия, приключения, семейный" Так что....
P.S: Не хочу никого обижать это так мысли вслух!
+1

Создавать темы 08-Янв-2014 03:42

[Профиль]  [ЛС] 

kamilchik

Стаж: 5 лет 1 месяц

Сообщений: 50

Хэх ну ты загнул
создадим новую шкалу терминологии , хорошая идея: дешевые триллеры и ужасы это тв 3 , идиотские комедии это тв 4, плохая порнография - будет тв 6 Москва.
Интересный факт если не знаешь что такое ТВ3 не пиши иначе засмеют! принципе ТВ3 это ужасы но стрем! а такого рода фильмы это бурда но для кого как у каждого свое мнение! А если все же наслушался что везде профы спрашивают тв3 или нет?! То будь добр читай Жанр фильма если ужас или триллер то пиши а здесь он "Жанр: фэнтези, драма, комедия, приключения, семейный" Так что....
P.S: Не хочу никого обижать это так мысли вслух!

Создавать темы 08-Янв-2014 10:45

[Профиль]  [ЛС] 
Показать сообщения:    
Ответить на тему

Текущее время: 24-Авг 09:59

Часовой пояс: UTC + 5



Вы не можете начинать темы
Вы не можете отвечать на сообщения
Вы не можете редактировать свои сообщения
Вы не можете удалять свои сообщения
Вы не можете голосовать в опросах
Вы не можете прикреплять файлы к сообщениям
Вы не можете скачивать файлы