Ночь страха / Fright Night (Крэйг Гиллеспи) [2011 г., ужасы, триллер, комедия, BDRip]

Ответить на тему
 

artur1 ®

Стаж: 6 лет 6 месяцев

Сообщений: 15

-Ночь страха / Fright Night--«Сумерки кончились. Рассвет не скоро.»- Год выпуска: 2011
Страна: США
Жанр: ужасы, триллер, комедия
Продолжительность: 01:45:58
Перевод: Профессиональный (полное дублирование) [Лицензия]
Режиссер: Крэйг Гиллеспи
В ролях: Колин Фаррелл, Антон Ельчин, Тони Коллетт, Дэвид Теннант, Имоджен Путс, Кристофер Минц-Плассе, Дэйв Франко, Рейд Юинг, Уилл Дентон, Сандра Вергара-Описание: Выпускник школы Чарли Брюстер находится на пике своей ученической карьеры: он популярен среди сверстников и встречается с самой очаровательной девушкой во всей школе. Он становится настолько крут, что начинает избегать своего когда-то лучшего друга Эда. Неприятности для Чарли начинаются, когда по соседству прописывается Джерри.
На первый взгляд он кажется хорошим парнем, но все же что-то с ним не так, хотя никто этого не замечает, даже мать Чарли. После анализа странного поведения соседа Чарли приходит к ужасному, но, увы, единственному верному заключению: под лживой маской Джерри скрывается кровожадный вампир, который сделал его район своими охотничьими угодьями.
Не в силах убедить кого бы то ни было в своей правоте, Чарли обращается за помощью и советом к популярному иллюзионисту из Лас-Вегаса Питеру Винсенту, рассчитывая, что кудесник поможет ему избавиться от монстра.
- -Формат 3D: Half SideBySide / Горизонтальная стереопара
Качество: BDRip
Формат: MPEG-TS
Видео кодек: MPEG Video
Аудио кодек: AC3
Видео: MPEG Video / 29,970 fps / 1920х1080p / 12.5 Mbps
Аудио: Русский / AC3 / 44.1 KHz / 2 ch / 320 Kbps

MI

General
ID : 1 (0x1)
Format : MPEG-TS
File size : 6.94 GiB
Duration : 1h 13mn
Overall bit rate : 13.5 Mbps
Video #256
ID : 256 (0x100)
Menu ID : 1 (0x1)
Format : MPEG Video
Format version : Version 2
Format profile : [email protected]
Format settings, BVOP : No
Format settings, Matrix : Default
Format settings, GOP : M=1, N=12
Codec ID : 2
Duration : 1h 45mn
Bit rate mode : Variable
Bit rate : 12.5 Mbps
Width : 1 920 pixels
Height : 1 080 pixels
Display aspect ratio : 16:9
Frame rate : 29.970 fps
Color space : YUV
Chroma subsampling : 4:2:0
Bit depth : 8 bits
Scan type : Progressive
Compression mode : Lossy
Bits/(Pixel*Frame) : 0.202
Stream size : 9.28 GiB
Audio #257
ID : 257 (0x101)
Menu ID : 1 (0x1)
Format : AC-3
Format/Info : Audio Coding 3
Mode extension : CM (complete main)
Codec ID : 129
Duration : 1h 45mn
Bit rate mode : Constant
Bit rate : 320 Kbps
Channel(s) : 2 channels
Channel positions : Front: L R
Sampling rate : 44.1 KHz
Bit depth : 16 bits
Compression mode : Lossy
Stream size : 242 MiB (3%)
Language : Russian

Скриншоты



Последний раз редактировалось: artur1 (2013-09-22 08:26), всего редактировалось 2 раз(а)

Создавать темы 19-Сен-2013 19:28

[Профиль]  [ЛС] 

Топик был перенесен из форума Тестовый форум в форум 3D Кинофильмы

artur1

Создавать темы 22-Сен-2013 02:36

 

artur1 ®

Стаж: 6 лет 6 месяцев

Сообщений: 15

всё исправил смените СТАТУС на проверино

Создавать темы 22-Сен-2013 18:37

[Профиль]  [ЛС] 

qosimow

Стаж: 5 лет 8 месяцев

Сообщений: 4

При скорости 81 KB/s как долго раздавать будешь!!!! ))))))))))

Создавать темы 22-Сен-2013 19:46

[Профиль]  [ЛС] 

artur1 ®

Стаж: 6 лет 6 месяцев

Сообщений: 15

у меня узонлайн без обид, но буду раздовать столько сколько понадобится

Создавать темы 25-Сен-2013 21:44

[Профиль]  [ЛС] 

morozko

Стаж: 6 лет 11 месяцев

Сообщений: 83

Симпатии: 17

на BD Rip чёто не очень похоже. по картинке больше смахивает на HDTV Rip. но объем виден больше, чем в поттере 7-м. фильм нормиальный. смотреть можно,хотя комедийного особо не заметил в нем.

Создавать темы 15-Окт-2013 20:59

[Профиль]  [ЛС] 
Показать сообщения:    
Ответить на тему

Текущее время: 14-Дек 11:27

Часовой пояс: UTC + 5



Вы не можете начинать темы
Вы не можете отвечать на сообщения
Вы не можете редактировать свои сообщения
Вы не можете удалять свои сообщения
Вы не можете голосовать в опросах
Вы не можете прикреплять файлы к сообщениям
Вы не можете скачивать файлы