Игра в правду (Виктор Шамиров) [2013 г., комедия, DVDRip][лицензия]

Ответить на тему
 

MeeZanTrop ®

Стаж: 5 лет 8 месяцев

Сообщений: 87

Симпатии: 8

Игра в правду-«Комедия для взрослых по-французски»- Год выпуска: 2013
Жанр: комедия
Продолжительность: 01:31:17-Режиссер: Виктор Шамиров-В ролях: Ирина Апексимова, Константин Юшкевич, Дмитрий Марьянов, Гоша Куценко-Описание: Трое бывших однокурсников собираются на квартире поболтать под водочку и вспомнить юность. Разухабистый бизнесмен Марк порывается вызвонить девочек, но не находит поддержки у друзей: автодилер Геннадий скорее по привычке хранит верность жене, а хозяин квартиры — физик и неудачник Анатолий — подготовил для всех сюрприз. Он приглашает в гости звезду их курса Майю, в которую все трое были влюблены 20 лет назад. Разговор на четверых не клеится, пока не начинается предельно откровенная игра в правду. Друзья узнают друг о друге то, чего, возможно, предпочли бы не знать. Пройдут ли их отношения проверку правдой?-Качество: DVDRip
Формат: AVI
Видео кодек: XviD
Аудио кодек: AC3
Видео: 720x304 (2.37:1), 25 fps, XviD build 73 ~1716 kbps avg, 0.31 bit/pixel
Аудио: 48 kHz, AC3 Dolby Digital, 3/2 (L,C,R,l,r) + LFE ch, ~448 kbps-рейтинг фильма :
 

MediaInfo

E:\Igra.v.pravdu.2013_DVDRip.avi
General
Complete name : E:\Igra.v.pravdu.2013_DVDRip.avi
Format : AVI
Format/Info : Audio Video Interleave
File size : 1.39 GiB
Duration : 1h 31mn
Overall bit rate : 2 175 Kbps
Writing application : VirtualDubMod 1.5.10.3 | www.virtualdub-fr.org || (build 2550/release)
Writing library : VirtualDubMod build 2550/release
Video #0
ID : 0
Format : MPEG-4 Visual
Format profile : Advanced [email protected]
Format settings, BVOP : Yes
Format settings, QPel : No
Format settings, GMC : No warppoints
Format settings, Matrix : Custom
Codec ID : XVID
Codec ID/Hint : XviD
Duration : 1h 31mn
Bit rate : 1 717 Kbps
Width : 720 pixels
Height : 304 pixels
Display aspect ratio : 2.35:1
Frame rate : 25.000 fps
Color space : YUV
Chroma subsampling : 4:2:0
Bit depth : 8 bits
Scan type : Progressive
Compression mode : Lossy
Bits/(Pixel*Frame) : 0.314
Stream size : 1.09 GiB (79%)
Writing library : XviD 73
Audio #1
ID : 1
Format : AC-3
Format/Info : Audio Coding 3
Mode extension : CM (complete main)
Codec ID : 2000
Duration : 1h 31mn
Bit rate mode : Constant
Bit rate : 448 Kbps
Channel(s) : 6 channels
Channel positions : Front: L C R, Side: L R, LFE
Sampling rate : 48.0 KHz
Bit depth : 16 bits
Compression mode : Lossy
Stream size : 293 MiB (21%)
Alignment : Split accross interleaves
Interleave, duration : 40 ms (1.00 video frame)
Interleave, preload duration : 500 ms

Скриншоты







Создавать темы 20-Сен-2013 22:13

[Профиль]  [ЛС] 

kamina_r.m

Стаж: 5 лет 8 месяцев

Сообщений: 29

Симпатии: 2

bw bw bw кокда будим качать

Создавать темы 20-Сен-2013 23:11

[Профиль]  [ЛС] 

MeeZanTrop ®

Стаж: 5 лет 8 месяцев

Сообщений: 87

Симпатии: 8

kamina_r.m, Как только модераторы проверят, так сразу и начнём bk

Создавать темы 20-Сен-2013 23:24

[Профиль]  [ЛС] 

kamina_r.m

Стаж: 5 лет 8 месяцев

Сообщений: 29

Симпатии: 2

MeeZanTrop, да уже начили

Создавать темы 20-Сен-2013 23:34

[Профиль]  [ЛС] 

edgemza

Стаж: 6 лет 5 месяцев

Сообщений: 191

Симпатии: 7

Плиз, укажите какой здесь звук? Лицензия?

Создавать темы 22-Сен-2013 11:55

[Профиль]  [ЛС] 

MeeZanTrop ®

Стаж: 5 лет 8 месяцев

Сообщений: 87

Симпатии: 8

Плиз, укажите какой здесь звук? Лицензия?
hm Да как бы, в шапке указал же - что это лицензия. Качайте смело, это рип с лицензионного DVD. bs Лицензия!!!

Создавать темы 22-Сен-2013 13:04

[Профиль]  [ЛС] 

uz-media

Стаж: 5 лет 8 месяцев

Сообщений: 24

Спасибо за Фильм

Создавать темы 27-Сен-2013 21:14

[Профиль]  [ЛС] 

renatspar

Стаж: 5 лет 1 месяц

Сообщений: 9

народ отпишитесь как фильм?стоит качать?

Создавать темы 28-Сен-2013 07:31

[Профиль]  [ЛС] 

alex445

Стаж: 6 лет 3 месяца

Сообщений: 5

фильм бутр, смотреть только время терять, не очем фильм

Создавать темы 04-Окт-2013 17:25

[Профиль]  [ЛС] 

VAIO

Стаж: 5 лет 9 месяцев

Сообщений: 1568

Симпатии: 1399

фильм бутр, смотреть только время терять, не очем фильм
Не согласен, фильм интересный, советую. Главное сюжет фильма очень привлек и игра актеров, конечно же : )

Создавать темы 11-Дек-2013 02:39

[Профиль]  [ЛС] 
Показать сообщения:    
Ответить на тему

Текущее время: 23-Окт 00:27

Часовой пояс: UTC + 5



Вы не можете начинать темы
Вы не можете отвечать на сообщения
Вы не можете редактировать свои сообщения
Вы не можете удалять свои сообщения
Вы не можете голосовать в опросах
Вы не можете прикреплять файлы к сообщениям
Вы не можете скачивать файлы