Мерзлая земля / The Frozen Ground (Скотт Уокер) [2013 г., триллер, криминал, биография, ..., HDRip]

Ответить на тему
 

igor1968 ®

Стаж: 5 лет 8 месяцев

Сообщений: 366

Симпатии: 197

Мерзлая земля / The Frozen Ground «Охотник становится жертвой» Год выпуска: 2013
Страна:
Жанр: триллер, криминал, биография, ...
Продолжительность: 01:45:34.161
Перевод: Профессиональный (полное дублирование)-Режиссер: Скотт Уокер-В ролях: Николас Кейдж, Джон Кьюсак, Ванесса Энн Хадженс, Дин Норрис,
Рада Митчелл, Джоди Лин О’Кифи, Кэтрин ЛаНаса, Фифти Сент, Джина Мантенья, Мэтт Джералд ...-Роли дублировали: Александр Рахленко, Александр Гаврилин, Иван Жарков- Все были уверены, что Роберт Хансен — приличный семьянин, владелец пекарни и славный охотник. Никто не подозревал, что на самом деле он — безжалостный маньяк, который похитил и убил более двадцати женщин. И только 17-летней Синди Полсон удалось сбежать от убийцы. Она наводит на след маньяка полицейского, который начинает опасное расследование. Ему никто не верит: Хансен — слишком приличный человек для такого обвинения… Но упорный коп знает свое дело и должен дойти до конца…- -Премьера
11 июля 2013, ...-Премьера
25 июля 2013, «Парадиз»-Релиз на DVD
8 октября 2013, «Парадиз / Активижен», ...-Релиз на Blu-Ray
8 октября 2013, «Парадиз / Активижен», ...
Качество: HDRip
Формат: AVI
Видео кодек: XviD
Аудио кодек: AC3
Видео: 720x304 (2.37:1), 23.976 fps, XviD build 50 ~1942 kbps avg, 0.37 bit/pixel
Аудио: #1: 48 kHz, AC3 Dolby Digital, 3/2 (L,C,R,l,r) + LFE ch, ~384.00 kbps avg
Audio #2: 48 kHz, AC3 Dolby Digital, 3/2 (L,C,R,l,r) + LFE ch, ~448.00 kbps avg(без перевода)-

MediaInfo

General
Complete name : The.Frozen.Ground.2013.D.HDRip.2100Mb.avi
Format : AVI
Format/Info : Audio Video Interleave
Format profile : OpenDML
File size : 2.05 GiB
Duration : 1h 45mn
Overall bit rate : 2 781 Kbps
Writing application : VirtualDubMod 1.5.10.2 (build 2540/release)
Writing library : VirtualDubMod build 2540/release
Video
ID : 0
Format : MPEG-4 Visual
Format profile : Advanced [email protected]
Format settings, BVOP : 2
Format settings, QPel : No
Format settings, GMC : No warppoints
Format settings, Matrix : Custom
Codec ID : XVID
Codec ID/Hint : XviD
Duration : 1h 45mn
Bit rate : 1 931 Kbps
Width : 720 pixels
Height : 304 pixels
Display aspect ratio : 2.35:1
Frame rate : 23.976 fps
Color space : YUV
Chroma subsampling : 4:2:0
Bit depth : 8 bits
Scan type : Progressive
Compression mode : Lossy
Bits/(Pixel*Frame) : 0.368
Stream size : 1.42 GiB (69%)
Writing library : XviD 1.2.1 (UTC 2008-12-04)
Audio #1
ID : 1
Format : AC-3
Format/Info : Audio Coding 3
Mode extension : CM (complete main)
Format settings, Endianness : Big
Codec ID : 2000
Duration : 1h 45mn
Bit rate mode : Constant
Bit rate : 384 Kbps
Channel(s) : 6 channels
Channel positions : Front: L C R, Side: L R, LFE
Sampling rate : 48.0 KHz
Bit depth : 16 bits
Compression mode : Lossy
Stream size : 290 MiB (14%)
Alignment : Split accross interleaves
Interleave, duration : 42 ms (1.00 video frame)
Interleave, preload duration : 500 ms
Audio #2
ID : 2
Format : AC-3
Format/Info : Audio Coding 3
Mode extension : CM (complete main)
Format settings, Endianness : Big
Codec ID : 2000
Duration : 1h 45mn
Bit rate mode : Constant
Bit rate : 448 Kbps
Channel(s) : 6 channels
Channel positions : Front: L C R, Side: L R, LFE
Sampling rate : 48.0 KHz
Bit depth : 16 bits
Compression mode : Lossy
Stream size : 338 MiB (16%)
Alignment : Split accross interleaves
Interleave, duration : 42 ms (1.00 video frame)
Interleave, preload duration : 500 ms
-

Скриншоты

- -

Создавать темы 21-Сен-2013 00:00

[Профиль]  [ЛС] 

victor0778

Стаж: 6 лет 9 месяцев

Сообщений: 1670

Симпатии: 142

Перевод: Профессиональный (полное дублирование)
Не кинотеатральный, левый дубляж

Создавать темы 21-Сен-2013 00:07

[Профиль]  [ЛС] 

igor1968 ®

Стаж: 5 лет 8 месяцев

Сообщений: 366

Симпатии: 197

Перевод: Профессиональный (полное дублирование)
Не кинотеатральный, левый дубляж
В релизе написано Профессиональный (полное дублирование)

Создавать темы 21-Сен-2013 00:08

[Профиль]  [ЛС] 

victor0778

Стаж: 6 лет 9 месяцев

Сообщений: 1670

Симпатии: 142

igor1968, я не спорю, но это как бы выразится подделка чтоли. сейчас появились студии которые дублируют кино, но там дубляж отличается от лицензионного, сильно

Создавать темы 21-Сен-2013 00:12

[Профиль]  [ЛС] 

igor1968 ®

Стаж: 5 лет 8 месяцев

Сообщений: 366

Симпатии: 197

Сам просмотрел фильм дубляж полный. С ВАМИ я не спорю это ВАШЕ право как релизы проверять , с- УВАЖЕНИЕМ.


Последний раз редактировалось: igor1968 (2013-09-21 00:16), всего редактировалось 1 раз

Создавать темы 21-Сен-2013 00:14

[Профиль]  [ЛС] 

victor0778

Стаж: 6 лет 9 месяцев

Сообщений: 1670

Симпатии: 142

Сам просмотрел фильм дубляж полный.
никто и не спорит, но этот дубляж не кинотеатральный, и будет отличаться от лицензионного

Создавать темы 21-Сен-2013 00:15

[Профиль]  [ЛС] 

Junkie

Стаж: 4 года 5 месяцев

Сообщений: 316

Симпатии: 21

скучноват малость...

Создавать темы 21-Сен-2013 08:49

[Профиль]  [ЛС] 
Показать сообщения:    
Ответить на тему

Текущее время: 19-Ноя 15:29

Часовой пояс: UTC + 5



Вы не можете начинать темы
Вы не можете отвечать на сообщения
Вы не можете редактировать свои сообщения
Вы не можете удалять свои сообщения
Вы не можете голосовать в опросах
Вы не можете прикреплять файлы к сообщениям
Вы не можете скачивать файлы