(Trance) VA - JES - Unleash The Beat 2 - 2013 (ПРЗ CD07268), FLAC (image+.cue), lossless

Ответить на тему
 

Admin ®

Стаж: 5 лет 10 месяцев

Сообщений: 580

Симпатии: 106

JES - Unleash The Beat 2 Жанр: Trance
Страна-производитель диска: Russia
Год издания: 2013
Издатель (лейбл): TME, Open Gate Records
Номер по каталогу: ПРЗ CD07268
Аудиокодек: FLAC (*.flac)
Тип рипа: image+.cue
Битрейт аудио: lossless
Продолжительность: 00:59:30 + 01:08:45
Источник (релизер): собственный рип
Наличие сканов в содержимом раздачи: да
Треклист:
CD1:
01. Audien - Wayfarer (4:45)
02. Dave202 - Straight Flush (Original Mix) (3:49)
03. Sini - Untold (4:17)
04. JES - Ghost (tyDi Remix) (5:08)
05. Manufactured Superstars - Zombies In Love (Original Mix) (4:00)
06. Etienne Ozborne & Benny Royal - Can You Feel It (3:31)
07. Robbie Rivera feat. JES - Turn It Around (Maurizio Gubellini vs. Nari & Milani Remix) (4:24)
08. Jochen Miller - Cheer Up! (Club Mix) (4:00)
09. LTN - Daylight (Original Mix) (3:48)
10. Conro - Axiom (Original Mix) (4:30)
11. Ost & Meyer vs. 7 Skies - Dharma (Original Mix) (3:10)
12. Simon Lee & Alvin - Count The Stars (Original) (3:59)
13. Justin Prime - Revolt (3:45)
14. JES & Andy Duguid - Before You Go (Pedro Del Mar & DoubleV Remix) (6:24)
CD2:
01. Signum - First Strike (Juventa Club Mix) (5:21)
02. Dan Stone - Drive (Stoneface & Terminal Remix) (4:36)
03. Adam Szabo & Willem de Roo - Lego (Original Mix) (5:03)
04. Jaco - Screw It (Original Mix) (3:25)
05. Christian Burns, Paul Oakenfold & JES - As We Collide (Orjan Nilsen Remix) (5:42)
06. Sander Van Doorn & Mark Knight V Underworld - Ten (Original Club Mix) (4:30)
07. Roger Shah, JES & Brian Laruso - Higher Than The Sun (Club Mix) (6:00)
08. Ost & Meyer - Take Off (Original Mix) (4:41)
09. Abstract Vision & Elite Electronic - Alive (4:42)
10. JES - Unleash The Beat (Dr. K & Nii vs. SHIHA Remix) (4:19)
11. Eximinds - Mainbeat (Original Mix) (3:41)
12. Beat Service - Metro (Original Mix) (4:26)
13. Charlie Darker, Paris & Simo - Cairo (5:00)
14. Cosmic Gate & JES - Flying Blind (Tom Fall Remix) (7:19)

Лог создания рипа

CD1

Exact Audio Copy V1.0 beta 3 from 29. August 2011
EAC extraction logfile from 1. September 2013, 16:12
JES / Unleash The Beat 2
Used drive : ATAPI iHAS124 C Adapter: 3 ID: 0
Read mode : SecureUtilize accurate stream : YesDefeat audio cache : YesMake use of C2 pointers : No
Read offset correction : 6Overread into Lead-In and Lead-Out : NoFill up missing offset samples with silence : YesDelete leading and trailing silent blocks : NoNull samples used in CRC calculations : YesUsed interface : Native Win32 interface for Win NT & 2000
Used output format : User Defined EncoderSelected bitrate : 896 kBit/sQuality : HighAdd ID3 tag : NoCommand line compressor : C:\Program Files (x86)\Exact Audio Copy\Flac\flac.exeAdditional command line options : -V -8 -T "Artist=%artist%" -T "Title=%title%" -T "Album=%albumtitle%" -T "Date=%year%" -T "Tracknumber=%tracknr%" -T "Genre=%genre%" -T "Discnumber=%cdnumber%" -T "Totaldiscs=%totalcds%" -T "Comment=%comment%" %hascover%--picture="%coverfile%"%hascover% %source% -o %dest%
TOC of the extracted CD
Track | Start | Length | Start sector | End sector --------------------------------------------------------- 1 | 0:00.00 | 4:45.00 | 0 | 21374 2 | 4:45.00 | 3:49.00 | 21375 | 38549 3 | 8:34.00 | 4:16.54 | 38550 | 57803 4 | 12:50.54 | 5:08.21 | 57804 | 80924 5 | 17:59.00 | 4:00.00 | 80925 | 98924 6 | 21:59.00 | 3:31.00 | 98925 | 114749 7 | 25:30.00 | 4:24.00 | 114750 | 134549 8 | 29:54.00 | 4:00.00 | 134550 | 152549 9 | 33:54.00 | 3:48.02 | 152550 | 169651 10 | 37:42.02 | 4:30.00 | 169652 | 189901 11 | 42:12.02 | 3:10.00 | 189902 | 204151 12 | 45:22.02 | 3:59.00 | 204152 | 222076 13 | 49:21.02 | 3:45.00 | 222077 | 238951 14 | 53:06.02 | 6:24.00 | 238952 | 267751
Range status and errors
Selected range
Filename D:\JES - Unleash The Beat 2.wav
Peak level 99.5 % Extraction speed 8.8 X Range quality 99.9 % Test CRC FFF102A7 Copy CRC FFF102A7 Copy OK
No errors occurred
AccurateRip summary
Track 1 not present in databaseTrack 2 not present in databaseTrack 3 not present in databaseTrack 4 not present in databaseTrack 5 not present in databaseTrack 6 not present in databaseTrack 7 not present in databaseTrack 8 not present in databaseTrack 9 not present in databaseTrack 10 not present in databaseTrack 11 not present in databaseTrack 12 not present in databaseTrack 13 not present in databaseTrack 14 not present in database
None of the tracks are present in the AccurateRip database
End of status report
==== Log checksum 0C2F45C27D375E4E12A8A19E3AE8D8488660A44F2A6546BA7348057A85863E8F ====

CD2

Exact Audio Copy V1.0 beta 3 from 29. August 2011
EAC extraction logfile from 1. September 2013, 16:58
JES / Unleash The Beat 2
Used drive : ATAPI iHAS124 C Adapter: 3 ID: 0
Read mode : SecureUtilize accurate stream : YesDefeat audio cache : YesMake use of C2 pointers : No
Read offset correction : 6Overread into Lead-In and Lead-Out : NoFill up missing offset samples with silence : YesDelete leading and trailing silent blocks : NoNull samples used in CRC calculations : YesUsed interface : Native Win32 interface for Win NT & 2000
Used output format : User Defined EncoderSelected bitrate : 896 kBit/sQuality : HighAdd ID3 tag : NoCommand line compressor : C:\Program Files (x86)\Exact Audio Copy\Flac\flac.exeAdditional command line options : -V -8 -T "Artist=%artist%" -T "Title=%title%" -T "Album=%albumtitle%" -T "Date=%year%" -T "Tracknumber=%tracknr%" -T "Genre=%genre%" -T "Discnumber=%cdnumber%" -T "Totaldiscs=%totalcds%" -T "Comment=%comment%" %hascover%--picture="%coverfile%"%hascover% %source% -o %dest%
TOC of the extracted CD
Track | Start | Length | Start sector | End sector --------------------------------------------------------- 1 | 0:00.00 | 5:21.00 | 0 | 24074 2 | 5:21.00 | 4:36.00 | 24075 | 44774 3 | 9:57.00 | 5:03.00 | 44775 | 67499 4 | 15:00.00 | 3:25.00 | 67500 | 82874 5 | 18:25.00 | 5:42.00 | 82875 | 108524 6 | 24:07.00 | 4:30.00 | 108525 | 128774 7 | 28:37.00 | 6:00.00 | 128775 | 155774 8 | 34:37.00 | 4:41.00 | 155775 | 176849 9 | 39:18.00 | 4:42.00 | 176850 | 197999 10 | 44:00.00 | 4:19.00 | 198000 | 217424 11 | 48:19.00 | 3:41.00 | 217425 | 233999 12 | 52:00.00 | 4:26.00 | 234000 | 253949 13 | 56:26.00 | 5:00.00 | 253950 | 276449 14 | 61:26.00 | 7:19.00 | 276450 | 309374
Range status and errors
Selected range
Filename D:\JES - Unleash The Beat 2.wav
Peak level 99.3 % Extraction speed 9.1 X Range quality 100.0 % Test CRC 99A6C055 Copy CRC 99A6C055 Copy OK
No errors occurred
AccurateRip summary
Track 1 not present in databaseTrack 2 not present in databaseTrack 3 not present in databaseTrack 4 not present in databaseTrack 5 not present in databaseTrack 6 not present in databaseTrack 7 not present in databaseTrack 8 not present in databaseTrack 9 not present in databaseTrack 10 not present in databaseTrack 11 not present in databaseTrack 12 not present in databaseTrack 13 not present in databaseTrack 14 not present in database
None of the tracks are present in the AccurateRip database
End of status report
==== Log checksum 7D89893EEF1A0A97FD7F040126162F3D4871695358FEA2E20024D155BE9963B3 ====

Лог проверки качества

AUDIOCHECKER v2.0 beta (build 457) - by Dester - [email protected]~~~~~~~~~~~~~~~~~~~~~~~~~~~~~~~~~~-=== DO NOT EDIT THIS FILE! ===-
Path: ...\JES - Unleash The Beat 2 (2013) [ПРЗCD07268]
1 -=- JES - Unleash The Beat 2 (CD1).flac -=- MPEG (95%)2 -=- JES - Unleash The Beat 2 (CD2).flac -=- MPEG (95%)
Summary 5,00% CDDA
2211492

Скриншот спектра частот

CD1: CD2:

Создавать темы 21-Сен-2013 01:27

[Профиль]  [ЛС] 
Показать сообщения:    
Ответить на тему

Текущее время: 22-Ноя 00:28

Часовой пояс: UTC + 5



Вы не можете начинать темы
Вы не можете отвечать на сообщения
Вы не можете редактировать свои сообщения
Вы не можете удалять свои сообщения
Вы не можете голосовать в опросах
Вы не можете прикреплять файлы к сообщениям
Вы не можете скачивать файлы