Наруто: Ураганные хроники 331 / Naruto Shippuuden 331 (Датэ хаятэ) [2013 г., Приключения, комедия, боевые искусства, сёнэн, HDTVRip-AVC]

Ответить на тему
 

dreamcetcher ®

Стаж: 6 лет

Сообщений: 53

Симпатии: 1

Наруто: Ураганные хроники 331 / Naruto Shippuuden 331
Год выпуска: 2013
Страна: Япония
Жанр: Приключения, комедия, боевые искусства, сёнэн
Продолжительность: 23:09
Перевод: Любительский (одноголосый)
Режиссер: Датэ хаятэ
В ролях: Накамура Тиэ / 中村千絵 — Сакура Харуно
Такэучи Дзюнко / 竹内順子 — Наруто Узумаки
Сугияма Нориаки / 杉山紀彰 — Саске Учиха
Исида Акира / 石田彰 — Гаара
Иноуэ Кадзухико / 井上和彦 — Какаши Хатаке
Кудзира / くじら — Орочимару
Канна Нобутоси / 神奈延年 — Кабуто Якуси
Кацуки Масако / 勝生真沙子 — Цунадэ
Масукава Ёити / 増川洋一 — Рок Ли
Мидзуки Нана / 水樹奈々 — Хината Хьюга
Морикубо Сётаро / 森久保祥太郎 — Шикамару Нара
Оцука Хотю / 大塚芳忠 — Джирайя
Сибата Хидэкацу / 柴田秀勝 — Третий Хокаге
Исикава Хидэо / 石川英郎 — Итачи Учиха
Тотика Койти / 遠近孝一 — Нейджи Хьюга
Описание: "Глаза, что смотрят во тьму"
Карин прикидывается дурочкой, отвлекая внимание наблюдателей, чтобы сбежать. Саске встречает на своём пути нескольких Белых Зецу. Суйгетсу и Джуго обнаруживают скрытую комнату в бывшем убежище Орочимару. Там они находят свиток, который, по словам Суйгетсу, может сильно повлиять на исход войны. Что же за свиток нашёл Суйгетсу и, что будет делать Саске дальше? Узнаем в 331 серии!
Качество: HDTVRip-AVC
Формат: MKV
Видео кодек: Другой MPEG4
Аудио кодек: MPEG Audio
Видео: AVC,1280x720,1776Kbs,23.976fps
Аудио: MPEG Audio,128 Kbps,44.1KHz,2ch

MediaInfo

General
Unique ID : 202204588061639402814792008857979155939 (0x981F2FE60CE38214A868301D2D0775E3)
Complete name : E:\Films\[RainDeath] Naruto Shippuuden - 331 [720p].mkv
Format : Matroska
Format version : Version 2
File size : 315 MiB
Duration : 23mn 9s
Overall bit rate : 1 902 Kbps
Encoded date : UTC 2013-09-19 12:57:33
Writing application : mkvmerge v2.9.8 ('C'est le bon') built on Aug 13 2009 12:49:06
Writing library : libebml v0.7.7 + libmatroska v0.8.1
Attachment : Yes
Video
ID : 2
Format : AVC
Format/Info : Advanced Video Codec
Format profile : [email protected]
Format settings, CABAC : Yes
Format settings, ReFrames : 6 frames
Codec ID : V_MPEG4/ISO/AVC
Duration : 23mn 9s
Bit rate : 1 776 Kbps
Width : 1 280 pixels
Height : 720 pixels
Display aspect ratio : 16:9
Frame rate mode : Constant
Frame rate : 23.976 fps
Color space : YUV
Chroma subsampling : 4:2:0
Bit depth : 8 bits
Scan type : Progressive
Bits/(Pixel*Frame) : 0.080
Stream size : 288 MiB (91%)
Writing library : x264 core 120 r2120 0c7dab9
Encoding settings : cabac=1 / ref=6 / deblock=1:1:1 / analyse=0x3:0x113 / me=umh / subme=8 / psy=1 / psy_rd=0.40:0.00 / mixed_ref=1 / me_range=16 / chroma_me=1 / trellis=1 / 8x8dct=1 / cqm=0 / deadzone=21,11 / fast_pskip=1 / chroma_qp_offset=-2 / threads=4 / sliced_threads=0 / nr=0 / decimate=1 / interlaced=0 / bluray_compat=0 / constrained_intra=0 / bframes=3 / b_pyramid=2 / b_adapt=2 / b_bias=0 / direct=3 / weightb=1 / open_gop=0 / weightp=2 / keyint=250 / keyint_min=23 / scenecut=40 / intra_refresh=0 / rc_lookahead=50 / rc=2pass / mbtree=1 / bitrate=1776 / ratetol=1.0 / qcomp=0.60 / qpmin=0 / qpmax=69 / qpstep=4 / cplxblur=20.0 / qblur=0.5 / vbv_maxrate=3552 / vbv_bufsize=8880 / nal_hrd=none / ip_ratio=1.40 / aq=1:0.60
Default : No
Forced : Yes
Audio
ID : 1
Format : MPEG Audio
Format version : Version 1
Format profile : Layer 3
Mode : Joint stereo
Mode extension : MS Stereo
Codec ID : A_MPEG/L3
Codec ID/Hint : MP3
Duration : 23mn 9s
Bit rate mode : Constant
Bit rate : 128 Kbps
Channel(s) : 2 channels
Sampling rate : 44.1 KHz
Compression mode : Lossy
Stream size : 21.2 MiB (7%)
Default : Yes
Forced : No

Скриншоты




Создавать темы 21-Сен-2013 02:02

[Профиль]  [ЛС] 

ALL TAIR

Стаж: 5 лет 10 месяцев

Сообщений: 141

Симпатии: 1

дай газууу

Создавать темы 21-Сен-2013 11:29

[Профиль]  [ЛС] 

Hazrat

Стаж: 5 лет 11 месяцев

Сообщений: 20

Симпатии: 2

дайте скорость плиз

Создавать темы 23-Сен-2013 14:56

[Профиль]  [ЛС] 
Показать сообщения:    
Ответить на тему

Текущее время: 16-Дек 12:08

Часовой пояс: UTC + 5



Вы не можете начинать темы
Вы не можете отвечать на сообщения
Вы не можете редактировать свои сообщения
Вы не можете удалять свои сообщения
Вы не можете голосовать в опросах
Вы не можете прикреплять файлы к сообщениям
Вы не можете скачивать файлы