Искушение Евы: Хорошая жена / Temptation of Eve: Good Wife (Jeong-deok Kwak) [2007 г., Триллер, DVDRip]

Ответить на тему
 

Nosferatu ®

Стаж: 4 года 8 месяцев

Сообщений: 79

Симпатии: 5

Искушение Евы: Хорошая жена
Temptation of Eve: Good Wife


Год выпуска: 2007
Страна: Корея Южная
Жанр: Триллер
Продолжительность: 01:26:59
Перевод: Профессиональный (многоголосый, закадровый)-Режиссер: Jeong-deok Kwak-В ролях: Ким Чжи Ван, Сео Ён, Чжин-а Ю, Чон Се Хон, Вон Тай Хи, Hae-ryong Jeon-Описание: Второй фильм из цикла “Искушение Евы”, который развивает истории сильных женщин и феномена женской сексуальности, позволяющего им манипулировать мужчинами.
Молодой, начинающий сценарист и продюсер кинофильмов Чо Джин-янг направляется на очень важную для него встречу с господином Cео Лимом. Для того, чтобы получить деньги на свой новый проект, сценарий к которому он написал сам. Однако г-н Лим неожиданно отказывается от предложения Чо, даже не повидавшись с ним. Начавшийся дождь еще более омрачил мысли молодого человека, однако откуда не возьмись появляется Она. В результате вихря событий Чо попадает в с девушкой в мотель, где она предается с ним жаркой страсти. Все бы ничего, но лиха беда начала. Джин-янг получает письмо по электронной почте от своего бывшего коллеги Кима Санг-хо, с которым за 3 года до этого произошел несчастный случай. Тот, при их встрече просит помочь ему по-дружбе проследить за его женой, в целомудренности которой он уже давно начал сомневаться...-Качество: DVDRip
Формат: AVI
Видео кодек: XviD
Аудио кодек: AC3
Видео: Xvid 720x400 23.976fps 1 340 Kbps
Аудио #1: AC-3, 448 Kbps, 6 channels, 48.0 KHz
Аудио #2: AC-3, 448 Kbps, 6 channels, 48.0 KHz
Присутствуют сцены жестокости и постельные сцены не предназначенные для зрителей младше 18 лет.

M/I

Format : AVI
Format/Info : Audio Video Interleave
File size : 1.37 GiB
Duration : 1h 26mn
Overall bit rate : 2 250 Kbps
Movie name : Tmptation of Eve. Part 1: Angel
Director : DVDrip KaMo
Subject : Tmptation of Eve. Part 1: Angel
Writing application : VirtualDubMod 1.4.13
Writing library : VirtualDub build 14328/release
Copyright : Perevod i adaptacija teksta @PD
Comment : Drame / Erotic / Mystery / Thriller
Video
ID : 0
Format : MPEG-4 Visual
Format profile : [email protected]
Format settings, BVOP : Yes
Format settings, QPel : No
Format settings, GMC : No warppoints
Format settings, Matrix : Default (MPEG)
Codec ID : XVID
Codec ID/Hint : XviD
Duration : 1h 26mn
Bit rate : 1 340 Kbps
Width : 720 pixels
Height : 400 pixels
Display aspect ratio : 16:9
Frame rate : 23.976 fps
Color space : YUV
Chroma subsampling : 4:2:0
Bit depth : 8 bits
Scan type : Progressive
Compression mode : Lossy
Bits/(Pixel*Frame) : 0.194
Stream size : 834 MiB (60%)
Writing library : XviD 1.0.3 (UTC 2004-12-20)
Audio #1
ID : 1
Format : AC-3
Format/Info : Audio Coding 3
Mode extension : CM (complete main)
Format settings, Endianness : Big
Codec ID : 2000
Duration : 1h 26mn
Bit rate mode : Constant
Bit rate : 448 Kbps
Channel(s) : 6 channels
Channel positions : Front: L C R, Side: L R, LFE
Sampling rate : 48.0 KHz
Bit depth : 16 bits
Compression mode : Lossy
Stream size : 279 MiB (20%)
Alignment : Split accross interleaves
Interleave, duration : 42 ms (1.00 video frame)
Interleave, preload duration : 500 ms
Audio #2
ID : 2
Format : AC-3
Format/Info : Audio Coding 3
Mode extension : CM (complete main)
Format settings, Endianness : Big
Codec ID : 2000
Duration : 1h 26mn
Bit rate mode : Constant
Bit rate : 448 Kbps
Channel(s) : 6 channels
Channel positions : Front: L C R, Side: L R, LFE
Sampling rate : 48.0 KHz
Bit depth : 16 bits
Compression mode : Lossy
Stream size : 279 MiB (20%)
Alignment : Split accross interleaves
Interleave, duration : 42 ms (1.00 video frame)
Interleave, preload duration : 500 ms

Скриншоты








Последний раз редактировалось: Nosferatu (2013-09-22 01:50), всего редактировалось 1 раз

Создавать темы 21-Сен-2013 23:44

[Профиль]  [ЛС] 

ilhom1985

Стаж: 5 лет 2 месяца

Сообщений: 40

Симпатии: 1

кто смотрел, как фильм?

Создавать темы 01-Окт-2013 10:27

[Профиль]  [ЛС] 

bes_t

Стаж: 6 лет 7 месяцев

Сообщений: 74

Симпатии: 11

Искушение Евы: Хорошая жена / Temptation of Eve: Good Wife (Jeong-deok Kwak) [2007 г., Триллер, DVDRip]
это 1ый фильм из цикла - Искушение Евы:Ангел

Создавать темы 13-Янв-2014 10:00

[Профиль]  [ЛС] 

zami.b

Стаж: 4 года 8 месяцев

Сообщений: 30

народ не уходите с раздачи плз

Создавать темы 15-Янв-2014 18:47

[Профиль]  [ЛС] 

Heroes

Стаж: 5 лет 8 месяцев

Сообщений: 148

Симпатии: 3

На раздачу вернитесь !

Создавать темы 20-Янв-2014 13:27

[Профиль]  [ЛС] 

Alyorbek

Стаж: 3 года 9 месяцев

Сообщений: 9

chto za filim kto smotrel

Создавать темы 01-Фев-2014 11:27

[Профиль]  [ЛС] 
Показать сообщения:    
Ответить на тему

Текущее время: 22-Ноя 15:49

Часовой пояс: UTC + 5



Вы не можете начинать темы
Вы не можете отвечать на сообщения
Вы не можете редактировать свои сообщения
Вы не можете удалять свои сообщения
Вы не можете голосовать в опросах
Вы не можете прикреплять файлы к сообщениям
Вы не можете скачивать файлы