Опасное обольщение / Oscura Seduccion (Уолтер Доэхнер) [2010 г., Триллер, HDTVRip]

Ответить на тему
 

Nosferatu ®

Стаж: 4 года 8 месяцев

Сообщений: 79

Симпатии: 5

Опасное обольщение / Oscura Seduccion

Год выпуска: 2010
Страна: Мексика
Жанр: Триллер
Продолжительность: 01:29:21
Перевод: Профессиональный (многоголосый, закадровый)-Режиссер: Уолтер Доэхнер-В ролях:
Элисабет Сервантес, Хулио Бекор, Марко Антонио Тревиньо, Клаудия Шмидт, Росио Васкез-Описание:
Лора работает косметическим хирургом, а Густаво становится ее практикантом. Мужчина привлекает внимание своего босса тем, что сетует на недостаток денег для продолжения его медицинского образования. Однако, этого ему мало — герой фильма намерено обольщает одинокую женщину и уже вскоре поселяется в ее доме. Поняв, что поспешила с серьезными отношениями, Лора просит любовника съехать. Но ей еще только предстоит узнать, каков он на самом деле.-Доп. информация:
Рейтинг КиноПоиск.Ru: 4.824 (33)
Рейтинг IMDb: 4 (104)-Качество: HDTVRip
Формат: AVI
Видео кодек: XviD
Аудио кодек: AC3
Видео: Xvid 720x400 24fps 1 944 Kbps
Аудио: Dolby AC3 48000Hz 6ch 384kbps

M/I

Format : AVI
Format/Info : Audio Video Interleave
File size : 1.46 GiB
Duration : 1h 29mn
Overall bit rate : 2 337 Kbps
Writing application : VirtualDubMod 1.5.10.2 (build 2540/release)
Writing library : VirtualDubMod build 2540/release
Video
ID : 0
Format : MPEG-4 Visual
Format profile : Advanced [email protected]
Format settings, BVOP : Yes
Format settings, QPel : No
Format settings, GMC : No warppoints
Format settings, Matrix : Default (MPEG)
Codec ID : XVID
Codec ID/Hint : XviD
Duration : 1h 29mn
Bit rate : 1 944 Kbps
Width : 720 pixels
Height : 400 pixels
Display aspect ratio : 16:9
Frame rate : 24.000 fps
Color space : YUV
Chroma subsampling : 4:2:0
Bit depth : 8 bits
Scan type : Progressive
Compression mode : Lossy
Bits/(Pixel*Frame) : 0.281
Stream size : 1.21 GiB (83%)
Writing library : XviD 1.2.1 (UTC 2008-12-04)
Audio
ID : 1
Format : AC-3
Format/Info : Audio Coding 3
Mode extension : CM (complete main)
Format settings, Endianness : Big
Codec ID : 2000
Duration : 1h 29mn
Bit rate mode : Constant
Bit rate : 384 Kbps
Channel(s) : 6 channels
Channel positions : Front: L C R, Side: L R, LFE
Sampling rate : 48.0 KHz
Bit depth : 16 bits
Compression mode : Lossy
Stream size : 245 MiB (16%)
Alignment : Split accross interleaves
Interleave, duration : 42 ms (1.00 video frame)
Interleave, preload duration : 500 ms

Скриншоты








Последний раз редактировалось: Nosferatu (2013-09-22 14:52), всего редактировалось 1 раз

Создавать темы 22-Сен-2013 13:54

[Профиль]  [ЛС] 

Sinatro

Стаж: 5 лет 11 месяцев

Сообщений: 117

Симпатии: 2

где скрины???

Создавать темы 22-Сен-2013 14:06

[Профиль]  [ЛС] 

titton

Стаж: 7 лет 4 месяца

Сообщений: 69

Симпатии: 2

плиз дайте скорости ta ta

Создавать темы 18-Июн-2014 12:16

[Профиль]  [ЛС] 
Показать сообщения:    
Ответить на тему

Текущее время: 12-Дек 07:48

Часовой пояс: UTC + 5



Вы не можете начинать темы
Вы не можете отвечать на сообщения
Вы не можете редактировать свои сообщения
Вы не можете удалять свои сообщения
Вы не можете голосовать в опросах
Вы не можете прикреплять файлы к сообщениям
Вы не можете скачивать файлы