Лето. Пляж. Кино / Teen Beach Movie (Джеффри Хорнадэй) [2013 г., Мюзикл, Семейный, DVDRip]

Ответить на тему
 

Nosferatu ®

Стаж: 4 года 5 месяцев

Сообщений: 79

Симпатии: 5

Лето. Пляж. Кино / Teen Beach Movie

Год выпуска: 2013
Страна: США
Жанр: Мюзикл, Семейный
Продолжительность: 01:35:01
Перевод: Профессиональный (многоголосый, закадровый)-Режиссер: Джеффри Хорнадэй-В ролях: Кевин Чэмберлин, Стив Валентайн, Бэрри Боствик, Росс Линч, Майя Митчелл, Грэйс Фиппс, Гари Клэйтон, Джон ДеЛюка, Крисси Фит, Сюзанн Крайер-Описание: Последний день лета подходит к концу, а поклонники сёрфинга Маккензи и ее друг Брейди никак не хотят уходить с пляжа. Под вечер они ловят огромную волну, которая переносит их не только в пространстве, но и во времени — на полстолетия назад! Здесь, в 60-х, друзья оказываются в центре противостояния двух шумных компаний — сёрферов и рокеров. Оказывается, всё, что происходит вокруг, — не что иное, как известный ретро-мюзикл. У Маккензи и Брейди есть только один шанс попасть обратно домой — вернуть музыкальную историю в прежнее русло. Для этого ребятам предстоит освоить язык песни и танца.-Доп. информация:
Рейтинг КиноПоиск.Ru: 6.091 (67)
Рейтинг IMDb: 6.1 (2249)-Качество: WEBDLRip
Формат: AVI
Видео кодек: XviD
Аудио кодек: AC3
Видео: Xvid 720x400 23.976fps 1472 Kbps
Аудио #1: AC-3, 192 Kbps, 2 channels, 48.0 KHz
Аудио #2: AC-3, 384 Kbps, 6 channels, 48.0 KHz

M/I

Format : AVI
Format/Info : Audio Video Interleave
File size : 110 MiB
Duration : 1h 35mn
Overall bit rate : 161 Kbps
Writing application : VirtualDubModRus 1.5.10.1 (build 2439/release)
Writing library : VirtualDubMod build 2439/release
Video
ID : 0
Format : MPEG-4 Visual
Format profile : Advanced [email protected]
Format settings, BVOP : Yes
Format settings, QPel : No
Format settings, GMC : No warppoints
Format settings, Matrix : Default (MPEG)
Codec ID : XVID
Codec ID/Hint : XviD
Duration : 1h 35mn
Width : 720 pixels
Height : 400 pixels
Display aspect ratio : 16:9
Frame rate : 23.976 fps
Color space : YUV
Chroma subsampling : 4:2:0
Bit depth : 8 bits
Scan type : Progressive
Compression mode : Lossy
Writing library : XviD 63
Audio #1
ID : 1
Format : AC-3
Format/Info : Audio Coding 3
Mode extension : CM (complete main)
Format settings, Endianness : Big
Codec ID : 2000
Duration : 1h 34mn
Bit rate mode : Constant
Bit rate : 192 Kbps
Channel(s) : 2 channels
Channel positions : Front: L R
Sampling rate : 48.0 KHz
Bit depth : 16 bits
Compression mode : Lossy
Stream size : 130 MiB
Alignment : Split accross interleaves
Audio #2
ID : 2
Format : AC-3
Format/Info : Audio Coding 3
Mode extension : CM (complete main)
Format settings, Endianness : Big
Codec ID : 2000
Duration : 1h 35mn
Bit rate mode : Constant
Bit rate : 384 Kbps
Channel(s) : 6 channels
Channel positions : Front: L C R, Side: L R, LFE
Sampling rate : 48.0 KHz
Bit depth : 16 bits
Compression mode : Lossy
Stream size : 261 MiB
Alignment : Split accross interleaves

Скриншоты








Создавать темы 22-Сен-2013 15:40

[Профиль]  [ЛС] 

ExtremeButcher

Стаж: 4 года 2 месяца

Сообщений: 39

Симпатии: 1

на ххххх,уз уже неделю назад было! и у меня ужескачано


Последний раз редактировалось: ExtremeButcher (2013-09-24 00:30), всего редактировалось 1 раз

Создавать темы 22-Сен-2013 20:57

[Профиль]  [ЛС] 

vanfank

Стаж: 4 года 3 месяца

Сообщений: 141

Симпатии: 5

Мастера перевода) Подросковый Пляжный Фильм

Создавать темы 09-Дек-2013 18:08

[Профиль]  [ЛС] 

AlibekOstanov

Стаж: 3 года 8 месяцев

Сообщений: 20

когда будет раздача?

Создавать темы 02-Авг-2014 09:31

[Профиль]  [ЛС] 

AlibekOstanov

Стаж: 3 года 8 месяцев

Сообщений: 20

спасибо за раздачу

Создавать темы 02-Авг-2014 16:38

[Профиль]  [ЛС] 

AlibekOstanov

Стаж: 3 года 8 месяцев

Сообщений: 20

ребят предложите мне хорошие фильмы которые показывают в дисней в суботнем киновечере не сириалы а токо фильмы пожалуйста и пишите мне в личку

Создавать темы 02-Авг-2014 16:42

[Профиль]  [ЛС] 

AlibekOstanov

Стаж: 3 года 8 месяцев

Сообщений: 20

Nosferatu, привет предложи мне хорошие фильмы которы показывают в дисней пожалуйста

Создавать темы 02-Авг-2014 16:51

[Профиль]  [ЛС] 
Показать сообщения:    
Ответить на тему

Текущее время: 20-Авг 08:52

Часовой пояс: UTC + 5



Вы не можете начинать темы
Вы не можете отвечать на сообщения
Вы не можете редактировать свои сообщения
Вы не можете удалять свои сообщения
Вы не можете голосовать в опросах
Вы не можете прикреплять файлы к сообщениям
Вы не можете скачивать файлы