Говорю же, я не извращенец! / Dakara Boku wa, H ga Dekinai. (Такахаси Такэо) [TV] [12 из 12] [без хардсаба] [RUS(ext), JAP+SUB] [2012 г., комедия, мистика, романтика, этти, BDRip] [720p]

Ответить на тему
 

MeiDoCorpse ®

Стаж: 4 года 5 месяцев

Сообщений: 222

Симпатии: 14

- Год выпуска: 2012
Страна: Япония
Жанр: комедия, мистика, романтика, этти
Тип: ТВ
Продолжительность: 12 эп. по 25 мин.-Режиссёр: Такахаси Такэо
Автор оригинала: Татибана Пан
Студия: Feel-Описание:
Молодая синигами, богиня смерти Лисара Ресталл является в мир людей, чтобы восстановить славу и влияние своего клана. В мире сериала синигами питаются чужой энергией, причем только избранные могут удовлетворить потребности высших существ. Найти такого партнера непросто, ведь душа большинства людей мелковата, в ней нет стержня, источника внутренней силы. Гостья не знала, что судьба, которая выше богов, уже приготовила ей сюрприз в лице простого парня по имени Рёсукэ Кага. А в чем сила простого 17-летнего японского школьника? Конечно же, в… воображении! В этой области Кага непобедимый чемпион, правда, большинство одноклассниц зовут его проще – извращенцем.
Да, Рёсукэ не святой, но его эротические мечты имеют такую силу, что гордая Лисара, скрепя сердце, согласилась на временный контракт, иначе ее миссия провалилась бы. Теперь они партнеры, и каждый получил от союза что-то свое: юная богиня начала лучше понимать окружающих, а земной парень стал меньше фантазировать и получил шанс среди приключений и битв «перейти к практике». Правда, цена может оказаться высокой, ибо, как открыла гостья, в Книге Судеб ее новому знакомому отпущено не больше трех месяцев жизни. Но ведь всякие там книги, что сценарии аниме: хорошо пойдет – можно и продолжение написать!
© Hollow, World Art-Информационные ссылки: AniDB || World Art || MAL-Качество: BDRip
Контейнер: MKV
Тип видео: Без хардсаба
Наличие линковки: Нет-
    Видео: x264 (Hi10p), 1280x720, ~3800 Kbps, 23.976 fps
    Энкод: Yousei-raws
    Аудио: Japanese, Vorbis, 48000Hz, ~256 Kbps, 2ch, в составе контейнера
    Оригинальная дорожка
    Аудио: Russian, AC3, 48000Hz, 192 Kbps, 2ch, внешними файлами
    Озвучка: двухголосая (муж./жен.) от MIKS & Мирра
    Аудио: Russian, AC3, 48000Hz, 192 Kbps, 2ch, внешними файлами
    Озвучка: двухголосая (муж./жен.) от DemonOFmooN & MezIdA
    Субтитры: Russian, ASS, внешними файлами
    Перевод: fynnley
-

Список эпизодов

01. Red String of Fate
02. Being a Perv Is Good for the Environment
03. The Dangerous Idol
04. The Gap Between Large and Small Breasts
05. Invisible Dictionary
06. Together As One
07. I Want To Let You...
08. Rival, Sways
09. My Kingdom Standing Tall
10. Heaven After Hell
11. Making Love Happen
12. Shut Up About H

Скриншоты

Подробные тех. данные

General
Unique ID : 205879842653943003624256735823222841163 (0x9AE303F0AF198754BE52F164EEF09F4B)
Complete name : E:\Dakara Boku wa, H ga Dekinai [BD] [720p]\[Yousei-raws] Dakara Boku wa, H ga Dekinai. 01 [BDrip 1280x720 x264 Vorbis].mkv
Format : Matroska
Format version : Version 2
File size : 840 MiB
Duration : 23mn 42s
Overall bit rate mode : Variable
Overall bit rate : 4 951 Kbps
Encoded date : UTC 2012-10-16 13:08:06
Writing application : mkvmerge v2.9.7 ('Tenderness') built on Jul 1 2009 18:43:35
Writing library : libebml v0.7.7 + libmatroska v0.8.1
Video
ID : 1
Format : AVC
Format/Info : Advanced Video Codec
Format profile : High [email protected]
Format settings, CABAC : Yes
Format settings, ReFrames : 9 frames
Codec ID : V_MPEG4/ISO/AVC
Duration : 23mn 42s
Bit rate : 4 596 Kbps
Width : 1 280 pixels
Height : 720 pixels
Display aspect ratio : 16:9
Frame rate mode : Constant
Frame rate : 23.976 fps
Color space : YUV
Chroma subsampling : 4:2:0
Bit depth : 10 bits
Scan type : Progressive
Bits/(Pixel*Frame) : 0.208
Stream size : 780 MiB (93%)
Writing library : x264 core 125 r2200 999b753
Encoding settings : cabac=1 / ref=9 / deblock=1:-2:-2 / analyse=0x3:0x133 / me=umh / subme=9 / psy=1 / psy_rd=0.90:0.00 / mixed_ref=1 / me_range=24 / chroma_me=1 / trellis=2 / 8x8dct=1 / cqm=0 / deadzone=21,11 / fast_pskip=1 / chroma_qp_offset=-2 / threads=6 / lookahead_threads=1 / sliced_threads=0 / nr=0 / decimate=0 / interlaced=0 / bluray_compat=0 / constrained_intra=0 / bframes=8 / b_pyramid=2 / b_adapt=2 / b_bias=0 / direct=1 / weightb=1 / open_gop=0 / weightp=2 / keyint=250 / keyint_min=23 / scenecut=40 / intra_refresh=0 / rc=crf / mbtree=0 / crf=15.8 / qcomp=0.70 / qpmin=9 / qpmax=40 / qpstep=4 / ip_ratio=1.40 / pb_ratio=1.30 / aq=1:0.90
Default : Yes
Forced : No
Audio
ID : 2
Format : Vorbis
Format settings, Floor : 1
Codec ID : A_VORBIS
Duration : 23mn 42s
Bit rate mode : Variable
Bit rate : 256 Kbps
Channel(s) : 2 channels
Sampling rate : 48.0 KHz
Compression mode : Lossy
Stream size : 43.4 MiB (5%)
Writing library : libVorbis (Schaufenugget) (20101101 (Schaufenugget))
Language : Japanese
Default : Yes
Forced : No


Последний раз редактировалось: MeiDoCorpse (2013-09-25 00:29), всего редактировалось 1 раз

Создавать темы 24-Сен-2013 17:21

[Профиль]  [ЛС] 

MeiDoCorpse ®

Стаж: 4 года 5 месяцев

Сообщений: 222

Симпатии: 14

Отличия от ТВ версии можно глянуть тут.


Последний раз редактировалось: MeiDoCorpse (2013-09-24 20:50), всего редактировалось 1 раз

Создавать темы 24-Сен-2013 17:35

[Профиль]  [ЛС] 

Naimov

Стаж: 5 лет 1 месяц

Сообщений: 62

Да анимеха была крутая

Создавать темы 24-Сен-2013 19:08

[Профиль]  [ЛС] 

dualblos

Стаж: 5 лет 5 месяцев

Сообщений: 89

Симпатии: 4

Мммм.... подскажите а как звук на руский поменять в настройках только японский

Создавать темы 28-Сен-2013 19:39

[Профиль]  [ЛС] 

MeiDoCorpse ®

Стаж: 4 года 5 месяцев

Сообщений: 222

Симпатии: 14

dualblos, скопируйте звуковые дорожки в папку с видео файлами и переключите в проигрывателе.

Создавать темы 28-Сен-2013 20:15

[Профиль]  [ЛС] 

dualblos

Стаж: 5 лет 5 месяцев

Сообщений: 89

Симпатии: 4

dualblos, скопируйте звуковые дорожки в папку с видео файлами и переключите в проигрывателе.
Усе так просто а я голову ломал спасибо )

Создавать темы 29-Сен-2013 06:56

[Профиль]  [ЛС] 

FaraUchixa

Стаж: 4 года 4 месяца

Сообщений: 22

помогите скачать

Создавать темы 20-Май-2014 19:02

[Профиль]  [ЛС] 

sagisag

Стаж: 5 лет 4 месяца

Сообщений: 10

Сиды, отзовитесь! :)

Создавать темы 06-Авг-2014 22:27

[Профиль]  [ЛС] 
Показать сообщения:    
Ответить на тему

Текущее время: 23-Окт 23:44

Часовой пояс: UTC + 5



Вы не можете начинать темы
Вы не можете отвечать на сообщения
Вы не можете редактировать свои сообщения
Вы не можете удалять свои сообщения
Вы не можете голосовать в опросах
Вы не можете прикреплять файлы к сообщениям
Вы не можете скачивать файлы