Семь жизней / Seven Pounds (Габриэле Муччино / Gabriele Muccino) [2008, США, драма, BDRip 720p] Dub + Original Eng + Sub Rus Eng

Ответить на тему
 

GIGABYTE158 ®

Стаж: 5 лет 4 месяца

Сообщений: 71

Симпатии: 13

Семь жизней / Seven Pounds
«Они не знакомы. У них разные судьбы. Но у них одна тайна.»
- Страна: США
Студия: Columbia Pictures, Overbrook Entertainment, Escape Artists, Relativity Media
Жанр: драма
Год выпуска: 2008
Продолжительность: 02:03:05-Перевод:
1. Профессиональный (дублированный)
Оригинальная аудиодорожка: английский
Cубтитры: русские, английские
Навигация по главам: есть-Режиссер: Габриэле Муччино / Gabriele Muccino
сценарий: Грант Нипорте
продюсер: Тодд Блэк, Джейсон Блюменталь, Джеймс Ласситер, ...
оператор: Филипп Ле Сурд
композитор: Анджело Милли
художник: Дж. Майкл Рива, Дэвид Ф. Классен, Шэрен Дэвис, ...-В ролях: Уилл Смит, Розарио Доусон, Вуди Харрельсон, Майкл Или, Барри Пеппер, Элпидия Каррильо, Робин Ли, Джо Нуньес, Билл Смитрович, Тим Келлехер, Джина Хехт, Энди Милдер-Описание: Пытаясь исправить ошибки прошлого, инженер Тим, который выдает себя за налогового инспектора с помощью удостоверения брата, отправляется в необычное путешествие в искупление фатального поступка своей жизни. В ходе своей поездки он встречает семерых незнакомцев, включая смертельно больную Эмили, которая называет себя девушкой с подбитыми крыльями. Тим неожиданно влюбляется в нее, что сильно усложняет его первоначальный план. Сможет ли он разгадать послание судьбы?-Доп. информация
бюджет: $55 000 000
сборы в США: $69 951 824
сборы в мире: + $98 215 867 = $168 167 691 сборы
сборы в России: $1 431 747
Возрастные ограничения: 16+
Рейтинг MPAA: PG-13 (детям до 13 лет просмотр не желателен)- -Исходник: BD Remux
Тип релиза: BDRip 720p
Контейнер: MKV
Видео: 1280x536 (2.40:1), 23.976 fps, ~3984 kbps, 0.242 bpp
Аудио 1: RUS 48 kHz, AC3 5.1, 448 kbps :: Дублированный
Аудио 2: ENG 48 kHz, AC3 5.1, 640 Kbps
Субтитры 1-2: русские(by Joker), английские
Формат субтитров: softsub (SRT)-трейлер дублированный-

x264

x264 [info]: 1280x536p 1:1 @ 24000/1001 fps (cfr)
x264 [info]: using SAR=1/1
x264 [info]: using cpu capabilities: MMX2 SSE2Fast SSSE3 FastShuffle SSE4.2 AVX
x264 [info]: profile High, level 4.1
x264 [info]: cabac=1 ref=11 deblock=1:-2:-2 analyse=0x3:0x113 me=umh subme=9 psy=1 fade_compensate=0.00 psy_rd=1.05:0.05 mixed_ref=1 me_range=32 chroma_me=1 trellis=2 8x8dct=1 cqm=0 deadzone=21,11 fast_pskip=0 chroma_qp_offset=-3 threads=6 lookahead_threads=1 sliced_threads=0 nr=0 decimate=0 interlaced=0 bluray_compat=0 constrained_intra=0 bframes=9 b_pyramid=2 b_adapt=2 b_bias=0 direct=3 weightb=1 open_gop=0 weightp=2 keyint=250 keyint_min=23 scenecut=40 intra_refresh=0 rc_lookahead=60 rc=2pass mbtree=1 bitrate=3984 ratetol=1.0 qcomp=0.70 qpmin=0 qpmax=69 qpstep=4 cplxblur=20.0 qblur=0.5 vbv_maxrate=50000 vbv_bufsize=62500 nal_hrd=none ip_ratio=1.30 aq=1:1.00
x264 [info]: frame I:1079 Avg QP:16.04 size: 96386
x264 [info]: frame P:32583 Avg QP:18.13 size: 36685
x264 [info]: frame B:143411 Avg QP:19.42 size: 16589
x264 [info]: consecutive B-frames: 1.1% 0.8% 3.3% 8.7% 12.9% 60.4% 7.0% 1.4% 2.8% 1.8%
x264 [info]: mb I I16..4: 8.4% 80.8% 10.8%
x264 [info]: mb P I16..4: 1.5% 11.4% 0.9% P16..4: 40.4% 25.3% 14.8% 0.0% 0.0% skip: 5.7%
x264 [info]: mb B I16..4: 0.1% 2.0% 0.1% B16..8: 44.4% 11.9% 3.5% direct: 6.8% skip:31.4% L0:47.6% L1:45.3% BI: 7.2%
x264 [info]: 8x8 transform intra:86.1% inter:62.5%
x264 [info]: direct mvs spatial:99.1% temporal:0.9%
x264 [info]: coded y,uvDC,uvAC intra: 90.5% 87.5% 69.4% inter: 33.3% 33.9% 14.5%
x264 [info]: i16 v,h,dc,p: 48% 13% 9% 29%
x264 [info]: i8 v,h,dc,ddl,ddr,vr,hd,vl,hu: 11% 7% 10% 10% 14% 13% 13% 11% 12%
x264 [info]: i4 v,h,dc,ddl,ddr,vr,hd,vl,hu: 13% 7% 4% 10% 16% 15% 13% 11% 12%
x264 [info]: i8c dc,h,v,p: 45% 21% 17% 17%
x264 [info]: Weighted P-Frames: Y:2.4% UV:1.0%
x264 [info]: ref P L0: 46.4% 5.7% 16.6% 8.2% 6.4% 4.9% 4.1% 2.4% 2.0% 1.7% 1.4% 0.1% 0.0%
x264 [info]: ref B L0: 63.6% 14.6% 7.8% 4.3% 3.1% 2.5% 2.0% 1.3% 0.7% 0.2%
x264 [info]: ref B L1: 90.6% 9.4%
x264 [info]: kb/s:3984.41

MediaInfo

General
Unique ID : 225998491489856058540158981174287080578 (0xAA05B9E9344F58B8B22DC790EA8B1C82)
Complete name : E:\Seven.Pounds.2008.BDRip.720p.mkv
Format : Matroska
Format version : Version 4 / Version 2
File size : 4.36 GiB
Duration : 2h 3mn
Overall bit rate : 5 075 Kbps
Movie name : Seven Pounds (2008)
Encoded date : UTC 2013-02-10 08:25:30
Writing application : mkvmerge v6.0.0 ('Coming Up For Air') built on Jan 20 2013 09:52:00
Writing library : libebml v1.3.0 + libmatroska v1.4.0
Video
ID : 1
Format : AVC
Format/Info : Advanced Video Codec
Format profile : [email protected]
Format settings, CABAC : Yes
Format settings, ReFrames : 11 frames
Codec ID : V_MPEG4/ISO/AVC
Duration : 2h 3mn
Bit rate : 3 984 Kbps
Width : 1 280 pixels
Height : 536 pixels
Display aspect ratio : 2.40:1
Frame rate mode : Constant
Frame rate : 23.976 fps
Color space : YUV
Chroma subsampling : 4:2:0
Bit depth : 8 bits
Scan type : Progressive
Bits/(Pixel*Frame) : 0.242
Stream size : 3.34 GiB (77%)
Title : Seven Pounds (2008)
Writing library : x264 core 129 r2230kMod 1cffe9f
Encoding settings : cabac=1 / ref=11 / deblock=1:-2:-2 / analyse=0x3:0x113 / me=umh / subme=9 / psy=1 / fade_compensate=0.00 / psy_rd=1.05:0.05 / mixed_ref=1 / me_range=32 / chroma_me=1 / trellis=2 / 8x8dct=1 / cqm=0 / deadzone=21,11 / fast_pskip=0 / chroma_qp_offset=-3 / threads=6 / lookahead_threads=1 / sliced_threads=0 / nr=0 / decimate=0 / interlaced=0 / bluray_compat=0 / constrained_intra=0 / bframes=9 / b_pyramid=2 / b_adapt=2 / b_bias=0 / direct=3 / weightb=1 / open_gop=0 / weightp=2 / keyint=250 / keyint_min=23 / scenecut=40 / intra_refresh=0 / rc_lookahead=60 / rc=2pass / mbtree=1 / bitrate=3984 / ratetol=1.0 / qcomp=0.70 / qpmin=0 / qpmax=69 / qpstep=4 / cplxblur=20.0 / qblur=0.5 / vbv_maxrate=50000 / vbv_bufsize=62500 / nal_hrd=none / ip_ratio=1.30 / aq=1:1.00
Language : English
Default : Yes
Forced : No
Matrix coefficients : BT.709
Audio #1
ID : 2
Format : AC-3
Format/Info : Audio Coding 3
Mode extension : CM (complete main)
Format settings, Endianness : Big
Codec ID : A_AC3
Duration : 2h 3mn
Bit rate mode : Constant
Bit rate : 448 Kbps
Channel(s) : 6 channels
Channel positions : Front: L C R, Side: L R, LFE
Sampling rate : 48.0 KHz
Bit depth : 16 bits
Compression mode : Lossy
Stream size : 394 MiB (9%)
Title : Dub / DD 5.1, 48kHz, 448kbps
Language : Russian
Default : Yes
Forced : No
Audio #2
ID : 3
Format : AC-3
Format/Info : Audio Coding 3
Mode extension : CM (complete main)
Format settings, Endianness : Big
Codec ID : A_AC3
Duration : 2h 3mn
Bit rate mode : Constant
Bit rate : 640 Kbps
Channel(s) : 6 channels
Channel positions : Front: L C R, Side: L R, LFE
Sampling rate : 48.0 KHz
Bit depth : 16 bits
Compression mode : Lossy
Stream size : 563 MiB (13%)
Title : Original / DD 5.1, 48kHz, 640kbps
Language : English
Default : No
Forced : No
Text #1
ID : 4
Format : UTF-8
Codec ID : S_TEXT/UTF8
Codec ID/Info : UTF-8 Plain Text
Title : Full / by Joker
Language : Russian
Default : No
Forced : No
Text #2
ID : 5
Format : UTF-8
Codec ID : S_TEXT/UTF8
Codec ID/Info : UTF-8 Plain Text
Title : Full
Language : English
Default : No
Forced : No
Menu
00:00:00.000 : en:Chapter 01
00:08:13.743 : en:Chapter 02
00:16:25.859 : en:Chapter 03
00:20:11.335 : en:Chapter 04
00:28:43.346 : en:Chapter 05
00:33:11.990 : en:Chapter 06
00:37:54.480 : en:Chapter 07
00:43:40.242 : en:Chapter 08
00:51:21.411 : en:Chapter 09
00:57:25.316 : en:Chapter 10
01:04:44.005 : en:Chapter 11
01:12:50.449 : en:Chapter 12
01:20:27.364 : en:Chapter 13
01:27:42.006 : en:Chapter 14
01:37:24.839 : en:Chapter 15
01:45:52.262 : en:Chapter 16

Скриншоты

Создавать темы 24-Сен-2013 20:36

[Профиль]  [ЛС] 
Показать сообщения:    
Ответить на тему

Текущее время: 22-Окт 22:31

Часовой пояс: UTC + 5



Вы не можете начинать темы
Вы не можете отвечать на сообщения
Вы не можете редактировать свои сообщения
Вы не можете удалять свои сообщения
Вы не можете голосовать в опросах
Вы не можете прикреплять файлы к сообщениям
Вы не можете скачивать файлы