Шерлок Холмс / Sherlock Holmes (Гай Ричи) [2009 г., боевик, триллер, драма, комедия, криминал, детектив, приключения, BDRip 1080p]

Страницы :  1, 2  След.

Ответить на тему
 

mumin2007 ®

Стаж: 7 лет 3 месяца

Сообщений: 10

Шерлок Холмс / Sherlock Holmes
Год выпуска: 2009
Страна: Австралия, Великобритания, США
Жанр: боевик, триллер, комедия, драма, приключения, криминал, детектив
Продолжительность: 02:08:24 мин
Перевод: Полное дублирование (Звук с LINE)
Режиссер: Гай Ричи
В ролях: Роберт Дауни мл., Джуд Лоу, Рэйчел МакАдамс, Марк Стронг, Эдди Марсен, Роберт Мэйллет, Джеральдин Джеймс, Келли Рейли, Уильям Хьюстон, Ханс Матесон и др
Описание: Шерлок Холмс (Роберт Дауни мл.) и доктор Ватсон (Джуд Лоу) берут могущественного лорда Блэквуда (Марк Стронг) с поличным, чудом предотвращая очередное жертвенное убийство. Пока оккультиста-неумеху готовят к повешению, Ватсон съезжает с Бейкер-стрит к невесте, оставляя Холмса в одиночестве, что незамедлительно сказывается на душевном здоровье сыщика. Он впадает в депрессию. Блэквуд повешен, и кажется, что столь сильного визави больше не найти, однако через несколько дней по Лондону расходятся слухи о воскрешении лорда. В его могиле найден другой. Холмс и Ватсон снова в деле! Пока лучшие друзья рыщут по следу восставшего из ада, в город прибывает аферистка Ирэн Адлер (Рэйчел МакАдамс), когда-то влюбившая в себя Холмса. В этом расследовании у неё есть свои резоны…
Доп. информация: Простая на первый взгляд конструкция фильма держится на трех китах-опорах. Убери хоть один – и можно начинать с нуля. Это: блистательный Роберт Дауни мл., удачно нащупанный и выдержанный до финальных титров темпоритм, и… классический английский юмор, сдержанный и остроумный. Каким именно образом Ричи удалось сплести из этих составляющих красивый узор – понятно не до конца. Важен результат. А он таков, что явная заявка на сиквел (кого теперь этим удивишь?) вызывает не зевоту, раздражение или брезгливость, а неподдельный интерес. У столь ловко рассказанной истории продолжение быть просто обязано.
Качество: BDRIP
Формат: MKV
Видео кодек: H.26x
Аудио кодек: AC3+DTS
Видео: 1920x1080, 23.98fps, 7791 Kbps
Аудио 1: 48000Hz, 6ch, 384 Kbps
Аудио 2: 48000Hz, 2ch (stereo), 128 Kbps (LINE звук)
Аудио 3: 48000Hz, 6ch, 1 536 Kbps

MediaInfo

General
Complete name : H:\Faxa\HD Кино\Sherlok.Holms.2009.x264.BDRip.1080p-kinozal.tv-HD.mkv
Format : Matroska
File size : 9.20 GiB
Duration : 2h 8mn
Overall bit rate : 10.3 Mbps
Movie name : =kinozal.tv-HD=
Encoded date : UTC 2010-03-11 10:15:09
Writing application : mkvmerge v3.1.0 ('Happy up here') built on Jan 19 2010 12:09:24
Writing library : libebml v0.7.9 + libmatroska v0.8.1
Video
ID : 1
Format : AVC
Format/Info : Advanced Video Codec
Format profile : [email protected]
Format settings, CABAC : Yes
Format settings, ReFrames : 4 frames
Codec ID : V_MPEG4/ISO/AVC
Duration : 2h 8mn
Bit rate : 8 238 Kbps
Width : 1 920 pixels
Height : 1 080 pixels
Display aspect ratio : 16:9
Frame rate : 23.976 fps
Color space : YUV
Chroma subsampling : 4:2:0
Bit depth : 8 bits
Scan type : Progressive
Bits/(Pixel*Frame) : 0.166
Stream size : 7.20 GiB (78%)
Writing library : x264 core 88 r1471 1144615
Encoding settings : cabac=1 / ref=4 / deblock=1:0:0 / analyse=0x3:0x133 / me=umh / subme=8 / psy=1 / psy_rd=1.00:0.00 / mixed_ref=1 / me_range=16 / chroma_me=1 / trellis=1 / 8x8dct=1 / cqm=0 / deadzone=21,11 / fast_pskip=1 / chroma_qp_offset=-2 / threads=24 / sliced_threads=0 / nr=0 / decimate=1 / mbaff=0 / constrained_intra=0 / bframes=3 / b_pyramid=2 / b_adapt=1 / b_bias=0 / direct=3 / wpredb=1 / wpredp=2 / keyint=250 / keyint_min=25 / scenecut=40 / intra_refresh=0 / rc=2pass / mbtree=0 / bitrate=8238 / ratetol=1.0 / qcomp=0.60 / qpmin=10 / qpmax=51 / qpstep=4 / cplxblur=20.0 / qblur=0.5 / ip_ratio=1.40 / pb_ratio=1.30 / aq=1:1.00
Language : English
Audio #1
ID : 2
Format : AC-3
Format/Info : Audio Coding 3
Mode extension : CM (complete main)
Codec ID : A_AC3
Duration : 2h 8mn
Bit rate mode : Constant
Bit rate : 384 Kbps
Channel(s) : 6 channels
Channel positions : Front: L C R, Side: L R, LFE
Sampling rate : 48.0 KHz
Bit depth : 16 bits
Video delay : 4ms
Stream size : 353 MiB (4%)
Title : MVO
Language : Russian
Audio #2
ID : 3
Format : MPEG Audio
Format version : Version 1
Format profile : Layer 3
Mode : Joint stereo
Mode extension : MS Stereo
Codec ID : A_MPEG/L3
Codec ID/Hint : MP3
Duration : 2h 8mn
Bit rate mode : Constant
Bit rate : 128 Kbps
Channel(s) : 2 channels
Sampling rate : 48.0 KHz
Video delay : 16ms
Stream size : 118 MiB (1%)
Title : DUB (Line)
Language : Russian
Audio #3
ID : 4
Format : DTS
Format/Info : Digital Theater Systems
Codec ID : A_DTS
Duration : 2h 8mn
Bit rate mode : Constant
Bit rate : 1 510 Kbps
Channel(s) : 6 channels
Channel positions : Front: L C R, Side: L R, LFE
Sampling rate : 48.0 KHz
Bit depth : 24 bits
Stream size : 1.35 GiB (15%)

Скриншоты



Аудиодорожка с дубляжом в данной раздаче с LINE звуком. Также присутствуют дорожка с многоголосой озвучкой и оригинал.


Последний раз редактировалось: mumin2007 (2010-09-28 23:56), всего редактировалось 8 раз(а)

Создавать темы 28-Сен-2010 00:52

[Профиль]  [ЛС] 

Dexter

Стаж: 7 лет 2 месяца

Сообщений: 7

Добавьте скорость уважаемые сиды

Создавать темы 22-Окт-2010 07:56

[Профиль]  [ЛС] 

tihash

Стаж: 7 лет 4 месяца

Сообщений: 7

прибавь скорости

Создавать темы 19-Дек-2010 19:38

[Профиль]  [ЛС] 

Farnerud

Стаж: 6 лет 9 месяцев

Сообщений: 13

до сих пор не золотая....

Создавать темы 22-Дек-2010 13:38

[Профиль]  [ЛС] 

tihash

Стаж: 7 лет 4 месяца

Сообщений: 7

скоростиииииииииииии

Создавать темы 03-Янв-2011 16:34

[Профиль]  [ЛС] 

aziko_84

Стаж: 6 лет 8 месяцев

Сообщений: 81

Симпатии: 5

Пожалуйста дайте раздачу

Создавать темы 05-Янв-2011 12:30

[Профиль]  [ЛС] 

FOX77

Стаж: 6 лет 8 месяцев

Сообщений: 10

поставте на раздачу плиз

Создавать темы 17-Май-2011 17:52

[Профиль]  [ЛС] 

Farhod631

Стаж: 6 лет 7 месяцев

Сообщений: 35

дайти скорость

Создавать темы 17-Май-2011 21:29

[Профиль]  [ЛС] 

FOX77

Стаж: 6 лет 8 месяцев

Сообщений: 10

кто нибудь раздовать будет вообше

Создавать темы 08-Июн-2011 15:17

[Профиль]  [ЛС] 

maska

Стаж: 7 лет

Сообщений: 20

встаньте на раздачу что ли zd

Создавать темы 13-Ноя-2011 22:06

[Профиль]  [ЛС] 

DMiTRY

Стаж: 6 лет 4 месяца

Сообщений: 649

Симпатии: 28

пожалуйста встаньте на раздачу! хотя бы 1-2 дня... думаю со скоростью 100-120кбит скачаю! пожалуйста! заранее спасибо!

Создавать темы 29-Дек-2011 12:56

[Профиль]  [ЛС] 

DMiTRY

Стаж: 6 лет 4 месяца

Сообщений: 649

Симпатии: 28

сидеры,кто раздаёт фильм в данное время,отзовитесь... сколько времени вы сможете находиться на раздаче?? что бы я знал заранее... спасибо за раздачу вообщем:)

Создавать темы 29-Дек-2011 20:43

[Профиль]  [ЛС] 

IP28

Стаж: 7 лет 3 месяца

Сообщений: 114

shariks, Тебе Сюда!

Создавать темы 30-Дек-2011 10:54

[Профиль]  [ЛС] 

DMiTRY

Стаж: 6 лет 4 месяца

Сообщений: 649

Симпатии: 28

Пожалуйста встаньте на раздачу! а то еле-еле качает... сто сообщение в тему про одно и тоже писать не хочется,сидеры пожалуйста встаньте на раздачу!

Создавать темы 30-Дек-2011 12:07

[Профиль]  [ЛС] 

DMiTRY

Стаж: 6 лет 4 месяца

Сообщений: 649

Симпатии: 28

пожалуйста! скачавшие встаньте на раздачу! неужели трудно) за 3 дня 25 процентов) позор... уважайте других и вас начнут уважать! спасибо всем

Создавать темы 03-Янв-2012 23:35

[Профиль]  [ЛС] 
Показать сообщения:    
Ответить на тему

Текущее время: 19-Сен 16:36

Часовой пояс: UTC + 5



Вы не можете начинать темы
Вы не можете отвечать на сообщения
Вы не можете редактировать свои сообщения
Вы не можете удалять свои сообщения
Вы не можете голосовать в опросах
Вы не можете прикреплять файлы к сообщениям
Вы не можете скачивать файлы