Дневной свет / Daglicht (Дидерик Ван Ружен) [2013 г., Боевик, Триллер, BDRip]

Ответить на тему
 

Nosferatu ®

Стаж: 4 года 8 месяцев

Сообщений: 79

Симпатии: 5

Дневной свет / Daglicht

Год выпуска: 2013
Страна: Нидерланды
Жанр: Боевик, Триллер
Продолжительность: 01:54:54
Перевод: Профессиональный (многоголосый, закадровый)-Режиссер: Дидерик Ван Ружен-В ролях:
Дерек де Линт, Федя ван Хюэт, Моник ван де Вен, Анжела Схяйф, Виктор Лёв, Тийс Ромер, Маттео ван дер Грийн, Йап Спийкерс, Майк Реус, Сабина Соэтанто-Описание:
Успешный адвокат Ирис узнает, что её мать всю жизнь скрывала от неё один большой секрет. Оказывается, у неё есть старший брат, о существовании которого она даже не подозревала. Рэй, страдающий аутизмом, много лет назад был осужден за жестокое убийство, и теперь находится в судебно-психиатрической клинике. Проникнувшись сочувствием к своему брату, Ирис решает ему помочь, но в поисках истины ей придется столкнуться с такими препятствиями, которые изменят её жизнь навсегда.-Доп. информация:
Рейтинг КиноПоиск.Ru: 6.989 (172)
Рейтинг IMDb: 7.1 (329)-Качество: BDRip
Формат: AVI
Видео кодек: XviD
Аудио кодек: AC3
Видео: Xvid 704x288 23.976fps 1 422 Kbps
Аудио: Dolby AC3 48000Hz 6ch 384kbps

M/I

Format : AVI
Format/Info : Audio Video Interleave
File size : 1.46 GiB
Duration : 1h 54mn
Overall bit rate : 1 815 Kbps
Movie name : Daglicht (2013)
Writing application : VirtualDubMod 1.5.10.3 (build 2550/release)
Copyright : ed_rez
Video
ID : 0
Format : MPEG-4 Visual
Format profile : Advanced [email protected]
Format settings, BVOP : Yes
Format settings, QPel : No
Format settings, GMC : No warppoints
Format settings, Matrix : Custom
Codec ID : XVID
Codec ID/Hint : XviD
Duration : 1h 54mn
Bit rate : 1 422 Kbps
Width : 704 pixels
Height : 288 pixels
Display aspect ratio : 2.40:1
Frame rate : 23.976 fps
Color space : YUV
Chroma subsampling : 4:2:0
Bit depth : 8 bits
Scan type : Progressive
Compression mode : Lossy
Bits/(Pixel*Frame) : 0.292
Stream size : 1.14 GiB (78%)
Writing library : XviD 73
Audio
ID : 1
Format : AC-3
Format/Info : Audio Coding 3
Mode extension : CM (complete main)
Format settings, Endianness : Big
Codec ID : 2000
Duration : 1h 54mn
Bit rate mode : Constant
Bit rate : 384 Kbps
Channel(s) : 6 channels
Channel positions : Front: L C R, Side: L R, LFE
Sampling rate : 48.0 KHz
Bit depth : 16 bits
Compression mode : Lossy
Stream size : 316 MiB (21%)
Alignment : Split accross interleaves
Interleave, duration : 42 ms (1.00 video frame)
Interleave, preload duration : 500 ms

Скриншоты








Последний раз редактировалось: Nosferatu (2013-09-25 07:34), всего редактировалось 3 раз(а)

Создавать темы 25-Сен-2013 00:07

[Профиль]  [ЛС] 

platosha1977

Стаж: 4 года 10 месяцев

Сообщений: 1

Чё за страна "Нидерландия"? Исправьте, не позорьтесь tb

Создавать темы 25-Сен-2013 06:40

[Профиль]  [ЛС] 

ExtremeButcher

Стаж: 4 года 5 месяцев

Сообщений: 39

Симпатии: 1

Голландия или Нидерланды

Создавать темы 25-Сен-2013 07:03

[Профиль]  [ЛС] 

Azazel

Стаж: 5 лет 10 месяцев

Сообщений: 62

Симпатии: 6

тут перевод одноголосовой

Создавать темы 26-Сен-2013 11:21

[Профиль]  [ЛС] 

vanfank

Стаж: 4 года 6 месяцев

Сообщений: 141

Симпатии: 5

Чё за страна "Нидерландия"? Исправьте, не позорьтесь tb
Чел IQ у тебя какой? такой 0.07%!

Создавать темы 07-Окт-2013 17:52

[Профиль]  [ЛС] 

m_jan

Стаж: 7 лет 10 месяцев

Сообщений: 41

Чё за страна "Нидерландия"? Исправьте, не позорьтесь tb
Чел IQ у тебя какой? такой 0.07%!
У самого какой ай кью? Он правильно заметил, НидерландЫ (Голландия).

Создавать темы 31-Окт-2013 17:28

[Профиль]  [ЛС] 

artur78-h

Стаж: 5 лет 7 месяцев

Сообщений: 114

тут перевод одноголосовой
Это вопрос или утверждение???
если вопрос....мне тоже интересно..

Создавать темы 31-Окт-2013 17:36

[Профиль]  [ЛС] 

Azazel

Стаж: 5 лет 10 месяцев

Сообщений: 62

Симпатии: 6

artur78-h, нет не вопрос я посмотрел там 1 голос

Создавать темы 01-Ноя-2013 14:36

[Профиль]  [ЛС] 
Показать сообщения:    
Ответить на тему

Текущее время: 25-Ноя 12:28

Часовой пояс: UTC + 5



Вы не можете начинать темы
Вы не можете отвечать на сообщения
Вы не можете редактировать свои сообщения
Вы не можете удалять свои сообщения
Вы не можете голосовать в опросах
Вы не можете прикреплять файлы к сообщениям
Вы не можете скачивать файлы