Любимец женщин / Roger Dodger (Дилан Кидд) [2002 г., Драма, Комедия, DVDRip]

Ответить на тему
 

Nosferatu ®

Стаж: 4 года 7 месяцев

Сообщений: 79

Симпатии: 5

Любимец женщин / Roger Dodger

Год выпуска: 2002
Страна: США
Жанр: Драма, Комедия
Продолжительность: 01:41:25
Перевод: Профессиональный (многоголосый, закадровый)-Режиссер: Дилан Кидд-В ролях:
Бен Шенкман, Дженнифер Билз, Джесси Айзенберг, Изабелла Росселлини, Крис Стэк, Кэмпбелл Скотт, Лиза Эмери, Мина Бэди, Морена Баккарин, Элизабет Беркли-Описание:
Эта «черная» комедия рассказывет историю специалиста по рекламе по имени Роджер, меняющего женщин, как перчатки, который дает советы, как добиться благосклонности от противоположного пола, своему несовершеннолетнему племяннику, который никак не расстанется со своей девственностью.Фильм предоставляет зрителю возможно провести 24 часа, наблюдая за их диковатыми приключениями в Нью-Йорке.-Качество: DVDRip
Формат: AVI
Видео кодек: XviD
Аудио кодек: AC3
Видео: Xvid 720x544 25fps 1 476 Kbps
Аудио: Dolby AC3 48000Hz 6ch 448kbps

M/I

Format : AVI
Format/Info : Audio Video Interleave
File size : 1.37 GiB
Duration : 1h 41mn
Overall bit rate : 1 931 Kbps
Writing application : VirtualDubMod 1.5.4.1 (build 2178/release)
Writing library : VirtualDubMod build 2178/release
Video
ID : 0
Format : MPEG-4 Visual
Format profile : Advanced [email protected]
Format settings, BVOP : Yes
Format settings, QPel : No
Format settings, GMC : No warppoints
Format settings, Matrix : Custom
Codec ID : XVID
Codec ID/Hint : XviD
Duration : 1h 41mn
Bit rate : 1 476 Kbps
Width : 720 pixels
Height : 544 pixels
Display aspect ratio : 4:3
Frame rate : 25.000 fps
Color space : YUV
Chroma subsampling : 4:2:0
Bit depth : 8 bits
Scan type : Progressive
Compression mode : Lossy
Bits/(Pixel*Frame) : 0.151
Stream size : 1.05 GiB (76%)
Writing library : XviD 1.2.0.dev47 (UTC 2006-11-01)
Audio
ID : 1
Format : AC-3
Format/Info : Audio Coding 3
Mode extension : CM (complete main)
Format settings, Endianness : Big
Codec ID : 2000
Duration : 1h 41mn
Bit rate mode : Constant
Bit rate : 448 Kbps
Channel(s) : 6 channels
Channel positions : Front: L C R, Side: L R, LFE
Sampling rate : 48.0 KHz
Bit depth : 16 bits
Compression mode : Lossy
Stream size : 325 MiB (23%)
Alignment : Split accross interleaves
Interleave, duration : 96 ms (2.40 video frames)
Interleave, preload duration : 96 ms
Language : Russian

Скриншоты





Создавать темы 25-Сен-2013 00:27

[Профиль]  [ЛС] 

ex_tanir

Стаж: 5 лет

Сообщений: 4

не качайте, кидалово, внутри другой фильм, название другое, там фильм объединенное организация безопасности, или что то вроде этого, но точно не фильм любимец женщин.

Создавать темы 30-Окт-2013 16:55

[Профиль]  [ЛС] 

imran

Стаж: 4 года 2 месяца

Сообщений: 19

да этот фильм. че ты обманываешь людей

Создавать темы 27-Окт-2014 19:13

[Профиль]  [ЛС] 
Показать сообщения:    
Ответить на тему

Текущее время: 22-Окт 11:37

Часовой пояс: UTC + 5



Вы не можете начинать темы
Вы не можете отвечать на сообщения
Вы не можете редактировать свои сообщения
Вы не можете удалять свои сообщения
Вы не можете голосовать в опросах
Вы не можете прикреплять файлы к сообщениям
Вы не можете скачивать файлы