Смурфики. Легенда о Смурфной лощине / The Smurfs: Legend of Smurfy Hollow (Степфан Франк) [2013, короткометражка, мультфильм, DVDRip]

Ответить на тему
 

ruslan08 ®

Стаж: 5 лет 7 месяцев

Сообщений: 73

Симпатии: 7

-Смурфики. Легенда о Смурфной лощине / The Smurfs: Legend of Smurfy Hollow- Год выпуска: 2013
Страна: США, Duck Studios, Sony Pictures Animation
Жанр: короткометражка, мультфильм
Продолжительность: ~ 00:21:22
Перевод: Дублированный-Режиссёр: Степфан Франк-Описание: Смурфики давно стали любимейшими героями маленьких зрителей. На этот раз смурфов ждут новые увлекательные приключения. А все началось с того, что смурфики услышали рассказ местного жителя о существующей давно легенде о Смурфной лощине, в котором постоянно происходят какие-то невероятные вещи. Старый рассказчик говорит о том, что лощина - это очень страшное и опасное место, посещать которое не желательно. Но смурфы решают раз и навсегда покончить с угрожающей всем Смурфной лощиной и изучить ее феномен.- -Качество: DVDRip
Формат: AVI
Видео кодек: XVID
Аудио кодек: AC3,
Видео: ~1755 kb/s, 704 x 384, 25,000 кадров/сек
Аудио: 192 kb/s, 2 channel, 48,0 КГц

MediaInfo

Формат : AVI
Формат/Информация : Audio Video Interleave
Размер файла : 299 Мбайт
Продолжительность : 21 м.
Общий поток : 1956 Кбит/сек
Программа кодирования : VirtualDubMod 1.5.10.3 | www.virtualdub-fr.org || (build 2550/release)
Библиотека кодирования : VirtualDubMod build 2550/release
Видео
Идентификатор : 0
Формат : MPEG-4 Visual
Профиль формата : Advanced [email protected]
Параметр BVOP формата : 1
Параметр QPel формата : Нет
Параметр GMC формата : Без точки перехода
Параметр матрицы формата : Выборочная
Идентификатор кодека : XVID
Идентификатор кодека/Подсказка : XviD
Продолжительность : 21 м.
Битрейт : 1755 Кбит/сек
Ширина : 704 пикселя
Высота : 384 пикселя
Соотношение сторон : 16:9
Частота кадров : 25,000 кадров/сек
Цветовое пространство : YUV
Субдискретизация насыщенности : 4:2:0
Битовая глубина : 8 бит
Тип развёртки : Прогрессивная
Метод сжатия : С потерями
Бит/(Пиксели*Кадры) : 0.260
Размер потока : 268 Мбайт (90%)
Библиотека кодирования : XviD 1.2.1 (UTC 2008-12-04)
Аудио
Идентификатор : 1
Формат : AC-3
Формат/Информация : Audio Coding 3
Профиль формата : Dolby Digital
Расширение режима : CM (complete main)
Идентификатор кодека : 2000
Продолжительность : 21 м.
Вид битрейта : Постоянный
Битрейт : 192 Кбит/сек
Каналы : 2 канала
Расположение каналов : Front: L R
Частота : 48,0 КГц
Битовая глубина : 16 бит
Метод сжатия : С потерями
Задержка видео : 1 с. 0 мс.
Размер потока : 29,4 Мбайт (10%)
Выравнивание : Разделение по промежуткам
Продолжительность промежутка : 40 мс. (1,00 видеокадр)
Время предзагрузки промежутка : 500 мс.

Скриншоты:



Последний раз редактировалось: ruslan08 (2013-09-26 00:23), всего редактировалось 1 раз

Создавать темы 25-Сен-2013 23:17

[Профиль]  [ЛС] 

desperate

Стаж: 6 лет 11 месяцев

Сообщений: 6

Дайте скорости спс

Создавать темы 08-Фев-2014 11:15

[Профиль]  [ЛС] 
Показать сообщения:    
Ответить на тему

Текущее время: 24-Авг 02:31

Часовой пояс: UTC + 5



Вы не можете начинать темы
Вы не можете отвечать на сообщения
Вы не можете редактировать свои сообщения
Вы не можете удалять свои сообщения
Вы не можете голосовать в опросах
Вы не можете прикреплять файлы к сообщениям
Вы не можете скачивать файлы