Ворон / The Crow, Ворон 2: Город ангелов / The Crow: City of Angels / Дилогия (Алекс Пройас / Alex Proyas, Тим Поуп / Tim Pope) [1994,1996 г., фэнтези, боевик, драма BDRip] [1080p] Dub + МVO + AVO + Original + Subs

Ответить на тему
 

Robot-IX ®

Стаж: 5 лет 6 месяцев

Сообщений: 223

Симпатии: 9

--Ворон / The Crow«Darker than the bat.»- Страна: США
Студия: Crowvision Inc., Edward R. Pressman Film, Entertainment Media Investment Corporation
Жанр: фэнтези, боевик, драма...
Год выпуска: 1994
Продолжительность: 01:37:29
Перевод №1: Полный Дубляж
Перевод №2: Профессиональный многоголосый закадровый
Перевод №3: Авторский одноголосый Ненормативная лексика (Василий Горчаков)
Субтитры: русские, английские
Оригинальная аудиодорожка: английский
Режиссер: Алекс Пройас / Alex Proyas
Сценарий: Дэвид Дж. Шоу, Джон Ширли, Джеймс О’Барр
Продюсер: Джефф Мост, Эдвард Р. Прессман, Шерман Л. Болдуин, ...
Оператор: Дариуш Вольски
Композитор: Грэм Ревелл
В ролях: Брэндон Ли/Brandon Lee, Рошелль Дэвис, Эрни Хадсон, Майкл Уинкотт, Бай Лин, София Шинас, Анна Левайн, Дэвид Патрик Келли, Энджел Дэвид, Лоуренс Мэйсон ...
Описание: Это была мрачная и страшная ночь. Ночь жуткого праздника Хэллоуин. Банда насильников и убийц, ворвавшись в дом молодой пары, жестоко расправилась с рок-музыкантом Эриком и его невестой Шелли.
Спустя год Эрик Дрэйвен выбирается из могилы и отправляется на поиски убийц. Человек ли он? Или Ворон, жаждущий возмездия?-Доп. информация:
IMDb: 7.50/10
КиноПоиск: 7.867/10
MPAA: R - лицам до 17 лет обязательно присутствие родителей или взрослого-

Интересные факты

  • В основу сценария легла одноименная книга комиксов Джеймса О’Барра,
    исполненная мрачной поэтики постпанковского воображения. Герой книги прибыл из небытия,
    чтобы отомстить за свою смерть и убийство своей подруги. Сюжет родился в голове автора через 3 года
    после того, как в автокатастрофе погибла его возлюбленная. Потом еще семь лет книга пролежала в столе,
    пока не нашла своего издателя. Когда же наконец она появилась в магазинах, сразу стала бестселлером.-
  • Первоначально на роль Эрика планировались Ривер Феникс и Кристиан Слэйтер.
  • Съемки фильма начались 1 февраля 1993 в Вильмингтоне и в этот же день Брэндону исполнилось 28 лет.
  • Сцены с Майклом Берриманом в роли «Skull Cowboy» были все вырезаны.
  • Роль Шелли предлагали Кэмерон Диаз, но ей не понравился сценарий.
  • Брэндон Ли в фильме на гитаре играет сам.
  • Поэма, которую цитирует Эрик, врываясь в магазин — «Ворон» Эдгара Аллана По.
  • Режиссёр хотел, чтобы в роли «Funboy» снялся Игги Поп, и создал этого персонажа именно для него, но тот не смог быть на съёмках из-за графика. Зато Игги снялся в сиквеле.
  • Порядок, в котором Эрик убивает своих врагов, тот же, в котором они первые напали на него.
  • Брэндон Ли во время съёмок получил травму, приведшую к его гибели. Кадры с этим несчастным случаем были уничтожены.-Следующие сцены были сделаны уже после смерти Брендона Ли:
  • Дрейвен входит в квартиру после того, как выкопался из могилы. Съёмки того, как Ли идёт по аллее под дождём
    были цифровым путём вмонтированы в сцену, где он проходит в дом. Компьютерные технологии добавили в дом капающей воды с потолка,
    чтобы вода не смотрелась некстати.
  • Cъёмки того, как Ли выпадает из окна, были сделаны с помощью совмещения лица Брендона и тела дублёра.
  • Сцена, где Дрейвен накладывает грим, была сделана с помощью дублёра. Лицо в разбитом зеркале было Брендонское,
    а руки, накладывающие грим — дублёра.
  • Cцена, где Эрик выходит с вороном на плече, была тоже скомпозирована — тело дублёра и лицо Брендона, видное при отблеске молнии.
  • Когда Сара входит в квартиру, нам не показывают лицо Ли, потому что это дублёр.
  • Тип релиза: BDRip 1080p
    Контейнер: MKV
    Видео кодек: H.264/AVC
    Аудио кодек: AС3, DTS
    Видео: High Profile [email protected] AVC at 1920 x 1080 (0.198) at 23.976 fps, 10.3 Мбит/сек
    Аудио#1: Russian: 48 kHz, Ac3 2ch, (L,R), 192.00 kbps |Дубляж|
    Аудио#2: Russian: 48 kHz, Ac3 5.1, 3/2 (L,C,R,l,r) + LFE ch, 448.00 kbps |Многоголосый закадровый|
    Аудио#3: Russian: 48 KHz, Ac3 2ch, (L,R), 192.00 kbps |Авторский одноголосый| (Василий Горчаков)
    Аудио#4: English: 48 kHz, DTS 5.1, 3/2 (L,C,R,l,r) + LFE ch, 1510.00 kbps
    Формат субтитров: softsub UTF-8-

    MediaInfo

    General
    Unique ID                                : 209483798808427048712033661082866059728 (0x9D991CB283B1E524915220102E1C89D0)
    Complete name                            : D:\Torent\Voron.1994_1996.1080p.BluRay.x264\Voron.1994.x264.BDRip.mkv
    Format                                   : Matroska
    Format version                           : Version 4 / Version 2
    File size                                : 8.57 GiB
    Duration                                 : 1h 37mn
    Overall bit rate                         : 12.6 Mbps
    Movie name                               : The.Crow.1994.1080p.REPACK.BluRay.x264-RoCKRioT
    Encoded date                             : UTC 2013-09-27 09:27:19
    Writing application                      : mkvmerge v6.0.0 ('Coming Up For Air') built on Jan 20 2013 09:52:00
    Writing library                          : libebml v1.3.0 + libmatroska v1.4.0
    Video
    ID                                       : 1
    Format                                   : AVC
    Format/Info                              : Advanced Video Codec
    Format profile                           : [email protected]
    Format settings, CABAC                   : Yes
    Format settings, ReFrames                : 5 frames
    Codec ID                                 : V_MPEG4/ISO/AVC
    Duration                                 : 1h 37mn
    Bit rate                                 : 10.3 Mbps
    Width                                    : 1 920 pixels
    Height                                   : 1 080 pixels
    Display aspect ratio                     : 16:9
    Frame rate mode                          : Constant
    Frame rate                               : 25.000 fps
    Color space                              : YUV
    Chroma subsampling                       : 4:2:0
    Bit depth                                : 8 bits
    Scan type                                : Progressive
    Bits/(Pixel*Frame)                       : 0.198
    Stream size                              : 6.81 GiB (79%)
    Title                                    : The Crow_1994
    Writing library                          : x264 core 65 r998M 6768543
    Encoding settings                        : cabac=1 / ref=5 / deblock=1:0:0 / analyse=0x1:0 / me=hex / subme=2 / psy_rd=0.0:0.0 / mixed_ref=0 / me_range=16 / chroma_me=1 / trellis=0 / 8x8dct=0 / cqm=0 / deadzone=21,11 / chroma_qp_offset=0 / threads=3 / nr=0 / decimate=1 / mbaff=0 / bframes=2 / b_pyramid=0 / b_adapt=1 / b_bias=0 / direct=1 / wpredb=0 / keyint=250 / keyint_min=25 / scenecut=40(pre) / rc=2pass / bitrate=10250 / ratetol=1.0 / qcomp=0.60 / qpmin=10 / qpmax=51 / qpstep=4 / cplxblur=20.0 / qblur=0.5 / ip_ratio=1.40 / pb_ratio=1.30 / aq=1:1.00
    Language                                 : English
    Default                                  : Yes
    Forced                                   : No
    Audio #1
    ID                                       : 2
    Format                                   : AC-3
    Format/Info                              : Audio Coding 3
    Mode extension                           : CM (complete main)
    Codec ID                                 : A_AC3
    Duration                                 : 1h 37mn
    Bit rate mode                            : Constant
    Bit rate                                 : 192 Kbps
    Channel(s)                               : 2 channels
    Channel positions                        : Front: L R
    Sampling rate                            : 48.0 KHz
    Bit depth                                : 16 bits
    Compression mode                         : Lossy
    Stream size                              : 134 MiB (2%)
    Title                                    : Dub AC3 2ch 192kbps
    Language                                 : Russian
    Default                                  : Yes
    Forced                                   : No
    Audio #2
    ID                                       : 3
    Format                                   : AC-3
    Format/Info                              : Audio Coding 3
    Mode extension                           : CM (complete main)
    Codec ID                                 : A_AC3
    Duration                                 : 1h 37mn
    Bit rate mode                            : Constant
    Bit rate                                 : 448 Kbps
    Channel(s)                               : 6 channels
    Channel positions                        : Front: L C R, Side: L R, LFE
    Sampling rate                            : 48.0 KHz
    Bit depth                                : 16 bits
    Compression mode                         : Lossy
    Stream size                              : 312 MiB (4%)
    Title                                    : MVO AC3 5.1 448kbps
    Language                                 : Russian
    Default                                  : No
    Forced                                   : No
    Audio #3
    ID                                       : 4
    Format                                   : AC-3
    Format/Info                              : Audio Coding 3
    Mode extension                           : CM (complete main)
    Codec ID                                 : A_AC3
    Duration                                 : 1h 37mn
    Bit rate mode                            : Constant
    Bit rate                                 : 192 Kbps
    Channel(s)                               : 2 channels
    Channel positions                        : Front: L R
    Sampling rate                            : 48.0 KHz
    Bit depth                                : 16 bits
    Compression mode                         : Lossy
    Stream size                              : 134 MiB (2%)
    Title                                    : AVO(Gorchakov) AC3 2ch 192kbps
    Language                                 : Russian
    Default                                  : No
    Forced                                   : No
    Audio #4
    ID                                       : 5
    Format                                   : DTS
    Format/Info                              : Digital Theater Systems
    Codec ID                                 : A_DTS
    Duration                                 : 1h 37mn
    Bit rate mode                            : Constant
    Bit rate                                 : 1 510 Kbps
    Channel(s)                               : 6 channels
    Channel positions                        : Front: L C R, Side: L R, LFE
    Sampling rate                            : 48.0 KHz
    Bit depth                                : 16 bits
    Compression mode                         : Lossy
    Stream size                              : 1.03 GiB (12%)
    Title                                    : Eng DTS 5.1 1510kbps
    Language                                 : English
    Default                                  : No
    Forced                                   : No
    Text #1
    ID                                       : 6
    Format                                   : UTF-8
    Codec ID                                 : S_TEXT/UTF8
    Codec ID/Info                            : UTF-8 Plain Text
    Language                                 : Russian
    Default                                  : No
    Forced                                   : No
    Text #2
    ID                                       : 7
    Format                                   : UTF-8
    Codec ID                                 : S_TEXT/UTF8
    Codec ID/Info                            : UTF-8 Plain Text
    Language                                 : English
    Default                                  : No
    Forced                                   : No

    Скриншоты




    ---Ворон 2: Город ангелов / The Crow: City of Angels«It's another time. It's another world. And another has been chosen.»- Страна: США
    Студия: Bad Bird Productions, Dimension Films, Jeff Most Productions, Miramax Films
    Жанр: фэнтези, боевик, драма...
    Год выпуска: 1996
    Продолжительность: 01:25:53
    Перевод №1: Профессиональный многоголосый закадровый
    Перевод №2: Профессиональный двухголосый закадровый
    Перевод №3: Авторский одноголосый (Юрий Живов)
    Субтитры: русские украинские
    Оригинальная аудиодорожка: английский
    Режиссер: Тим Поуп / Tim Pope
    Сценарий: Дэвид С. Гойер, Джеймс О’Барр
    Продюсер: Джефф Мост, Эдвард Р. Прессман, Алессандро Камон, ...
    Оператор: Жан-Ив Эскоффер
    Композитор: Грэм Ревелл
    В ролях: Венсан Перес, Миа Киршнер, Ричард Брукс, Игги Поп, Томас Джейн, Винсент Кастелланос, Туи Транг, Эрик Акоста, Иэн Дёри, Трейси Эллис ...
    Описание: Свидетель жестокой расправы Эш Корвен, сам становится жертвой. Восставший из мертвых, он вступает в борьбу с силами зла в Лос-Анджелесе. Вместе с художницей, которой он снился во сне, Эш начинает мстить своим убийцам!-Доп. информация:
    IMDb: 4.20/10
    КиноПоиск: 5.861/10
    MPAA: R - лицам до 17 лет обязательно присутствие родителей или взрослого-

    Интересные факты

  • Последний фильм актрисы Туи Транг.
  • Главный злодей Иуда в одной из сцен читает стих про ворона. Этот стих позаимствован из оригинального комикса Джеймса О’Барра.
  • Джон Бон Джови пробовался на главную роль.
  • Изначально планировалось, что главного героя будут звать Майкл Корвин, однако имя было изменено на Эш.
  • Для некоторых сцен с участием Венсана Переса был использован каскадер, однако Венсан настоял на том, что в финальной сцене все трюки
    будет выполнять сам. Сцены падения с пятого этажа, избиение кнутом и повешания были выполнены самим Венсаном.
  • Следующие сцены не вошли в фильм: Когда Эш бежит из квартиры Сары, он не верит что мертв.
    После этого Сара наносит ему удар кухонным ножом. Когда Эш расправляется с «Мартышкой», он выходит из здания, после чего говорит:
    «Не пытаетесь повторить это дома, дети», а затем выстреливает в себя. В оригинале Эш не сжигал рисунки Дэнни. В фильме Эш расправляется с Кали,
    а затем с Кервом. В оригинале же было наоборот. Когда Кали была выброшена из окна, из ниоткуда появляется Эш. Кали просит его, чтобы он убил ее быстро,
    потому что она мучается от боли. Эш разворачивается и уходит.
  • Тип релиза: BDRip 1080p
    Контейнер: MKV
    Видео кодек: H.264/AVC
    Аудио кодек: AС3, DTS
    Видео: High Profile [email protected] AVC at 1920 x 1040 (0.197) at 23.976 fps, 9.2 Мбит/сек
    Аудио#1: Russian: 48 kHz, Ac3 5.1, 3/2 (L,C,R,l,r) + LFE ch, 384.00 kbps |Многоголосый закадровый|
    Аудио#2: Russian: 48 kHz, Ac3 5.1, 3/2 (L,C,R,l,r) + LFE ch, 384.00 kbps |Двухголосый закадровый|
    Аудио#3: Russian: 48 KHz, Ac3 5.1, 3/2 (L,C,R,l,r) + LFE ch, 384.00 kbps |Авторский одноголосый| (Юрий Живов)
    Аудио#4: English: 48 kHz, DTS 2ch, (L,R), 1510.00 kbps
    Формат субтитров: softsub UTF-8-

    MediaInfo

    General
    Unique ID                                : 178057607632747123197928555090224636209 (0x85F4A5D89E566BDD9EC486CA650C6131)
    Complete name                            : D:\Torent\Voron.1994_1996.1080p.BluRay.x264\Voron.1996.x264.BDRip.mkv
    Format                                   : Matroska
    Format version                           : Version 4 / Version 2
    File size                                : 7.24 GiB
    Duration                                 : 1h 25mn
    Overall bit rate                         : 12.1 Mbps
    Encoded date                             : UTC 2013-09-27 10:01:13
    Writing application                      : mkvmerge v6.0.0 ('Coming Up For Air') built on Jan 20 2013 09:52:00
    Writing library                          : libebml v1.3.0 + libmatroska v1.4.0
    Video
    ID                                       : 1
    Format                                   : AVC
    Format/Info                              : Advanced Video Codec
    Format profile                           : [email protected]
    Format settings, CABAC                   : Yes
    Format settings, ReFrames                : 4 frames
    Codec ID                                 : V_MPEG4/ISO/AVC
    Duration                                 : 1h 25mn
    Bit rate                                 : 9 413 Kbps
    Width                                    : 1 920 pixels
    Height                                   : 1 040 pixels
    Display aspect ratio                     : 16:9
    Frame rate                               : 23.976 fps
    Color space                              : YUV
    Chroma subsampling                       : 4:2:0
    Bit depth                                : 8 bits
    Scan type                                : Progressive
    Bits/(Pixel*Frame)                       : 0.197
    Stream size                              : 5.50 GiB (76%)
    Title                                    : The Crow: City of Angels_1996
    Writing library                          : x264 core 115 r1995 c1e60b9
    Encoding settings                        : cabac=1 / ref=4 / deblock=1:-1:-1 / analyse=0x3:0x113 / me=umh / subme=7 / psy=1 / psy_rd=1.00:0.00 / mixed_ref=1 / me_range=16 / chroma_me=1 / trellis=1 / 8x8dct=1 / cqm=0 / deadzone=21,11 / fast_pskip=1 / chroma_qp_offset=-2 / threads=12 / sliced_threads=0 / nr=0 / decimate=1 / interlaced=0 / bluray_compat=0 / constrained_intra=0 / bframes=3 / b_pyramid=2 / b_adapt=2 / b_bias=0 / direct=3 / weightb=1 / open_gop=0 / weightp=2 / keyint=250 / keyint_min=23 / scenecut=40 / intra_refresh=0 / rc_lookahead=40 / rc=2pass / mbtree=1 / bitrate=9413 / ratetol=1.0 / qcomp=0.60 / qpmin=0 / qpmax=69 / qpstep=4 / cplxblur=20.0 / qblur=0.5 / vbv_maxrate=50000 / vbv_bufsize=50000 / nal_hrd=none / ip_ratio=1.40 / aq=1:1.00
    Language                                 : English
    Default                                  : Yes
    Forced                                   : No
    Audio #1
    ID                                       : 2
    Format                                   : AC-3
    Format/Info                              : Audio Coding 3
    Mode extension                           : CM (complete main)
    Codec ID                                 : A_AC3
    Duration                                 : 1h 25mn
    Bit rate mode                            : Constant
    Bit rate                                 : 384 Kbps
    Channel(s)                               : 6 channels
    Channel positions                        : Front: L C R, Side: L R, LFE
    Sampling rate                            : 48.0 KHz
    Bit depth                                : 16 bits
    Compression mode                         : Lossy
    Stream size                              : 236 MiB (3%)
    Title                                    : MVO AC3 5.1 384kbps
    Language                                 : Russian
    Default                                  : Yes
    Forced                                   : No
    Audio #2
    ID                                       : 3
    Format                                   : AC-3
    Format/Info                              : Audio Coding 3
    Mode extension                           : CM (complete main)
    Codec ID                                 : A_AC3
    Duration                                 : 1h 25mn
    Bit rate mode                            : Constant
    Bit rate                                 : 384 Kbps
    Channel(s)                               : 6 channels
    Channel positions                        : Front: L C R, Side: L R, LFE
    Sampling rate                            : 48.0 KHz
    Bit depth                                : 16 bits
    Compression mode                         : Lossy
    Stream size                              : 236 MiB (3%)
    Title                                    : DVO AC3 5.1 384kbps
    Language                                 : Russian
    Default                                  : No
    Forced                                   : No
    Audio #3
    ID                                       : 4
    Format                                   : AC-3
    Format/Info                              : Audio Coding 3
    Mode extension                           : CM (complete main)
    Codec ID                                 : A_AC3
    Duration                                 : 1h 25mn
    Bit rate mode                            : Constant
    Bit rate                                 : 384 Kbps
    Channel(s)                               : 6 channels
    Channel positions                        : Front: L C R, Side: L R, LFE
    Sampling rate                            : 48.0 KHz
    Bit depth                                : 16 bits
    Compression mode                         : Lossy
    Stream size                              : 236 MiB (3%)
    Title                                    : AVO(Zhivov) AC3 5.1 384kbps
    Language                                 : Russian
    Default                                  : No
    Forced                                   : No
    Audio #4
    ID                                       : 5
    Format                                   : DTS
    Format/Info                              : Digital Theater Systems
    Codec ID                                 : A_DTS
    Duration                                 : 1h 25mn
    Bit rate mode                            : Constant
    Bit rate                                 : 1 510 Kbps
    Channel(s)                               : 2 channels
    Channel positions                        : Front: L R
    Sampling rate                            : 48.0 KHz
    Bit depth                                : 24 bits
    Compression mode                         : Lossy
    Delay relative to video                  : 11ms
    Stream size                              : 927 MiB (13%)
    Title                                    : Eng DTS 2ch 1510kbps
    Language                                 : English
    Default                                  : No
    Forced                                   : No
    Text #1
    ID                                       : 6
    Format                                   : UTF-8
    Codec ID                                 : S_TEXT/UTF8
    Codec ID/Info                            : UTF-8 Plain Text
    Language                                 : Russian
    Default                                  : No
    Forced                                   : No
    Text #2
    ID                                       : 7
    Format                                   : UTF-8
    Codec ID                                 : S_TEXT/UTF8
    Codec ID/Info                            : UTF-8 Plain Text
    Language                                 : Ukrainian
    Default                                  : No
    Forced                                   : No

    Скриншоты




    Создавать темы 27-Сен-2013 19:06

    [Профиль]  [ЛС] 

    baxa_1818

    Стаж: 5 лет 5 месяцев

    Сообщений: 62

    Симпатии: 3

    оформления конкрет

    Создавать темы 30-Сен-2013 22:40

    [Профиль]  [ЛС] 
    Показать сообщения:    
    Ответить на тему

    Текущее время: 18-Окт 08:49

    Часовой пояс: UTC + 5



    Вы не можете начинать темы
    Вы не можете отвечать на сообщения
    Вы не можете редактировать свои сообщения
    Вы не можете удалять свои сообщения
    Вы не можете голосовать в опросах
    Вы не можете прикреплять файлы к сообщениям
    Вы не можете скачивать файлы