Дьявольские Возлюбленные / Diabolik Lovers ( Тагасира Синобу ) [1-12 из 12] [Без хардсаба] [RUS(int)] [2013 г., приключения, сёдзе, гарем, мистика, HDTVRip] [720p]

Страницы :  1, 2  След.

Ответить на тему
 

Азиз87 ®

Стаж: 5 лет 1 месяц

Сообщений: 752

Симпатии: 143


--Год выпуска: c 16.09.2013
Страна: Япония
Жанр: приключения, сёдзе, гарем, мистика
Продолжительность: ~15 мин.
Перевод: Профессиональный (многоголосый, закадровый)
Студия:
Режиссер: Тагасира Синобу--Описание:Комори Юи - жизнерадостная девушка, чей оптимизм не отменяет даже способность видеть духов и постоянно попадать в лапы к полтергейстам.
Из-за работы отца они переезжают, и Юи попадает в знаменитую школу для знаменитостей и богачей, в которой уроки начинаются поздним вечером. Казалось бы, что может быть необычнее? Но на этом сюрпризы не заканчиваются: по школе ходит слух, что среди студентов скрывается несколько вампиров. И, конечно, наша героиня попадает прямо в лапы к шести братьям-кровососам, у которых к тому же ярко выражены садистские наклонности. Любопытно, чем закончится проживание Юи и братьев Сакамаки под одной крышей? World Art
--Качество: HDTVRip
Формат: MKV [Leopard-Raws]
Видео: x264 (8 bits), ~ 2 004 Kbps, 1280x720, 16:9, 23.976 fps
Аудио: RU - AAC, 2 ch, 48 KHz, ~256 kbps - студия Kansai
Субтитры: отсутствуют

MI:

General
Complete name : F:\Downloads\torrents\Diabolik Lovers [KANSAI]\Diabolik Lovers - 01 [ 1280x720 ] KANSAI.mp4
Format : MPEG-4
Format profile : Base Media
Codec ID : isom
File size : 243 MiB
Duration : 15mn 2s
Overall bit rate mode : Variable
Overall bit rate : 2 264 Kbps
Encoded date : UTC 2013-09-18 17:58:19
Tagged date : UTC 2013-09-18 17:58:19
Writing application : Yamb 2.1.0.0 [http://yamb.unite-video.com]
Video
ID : 1
Format : AVC
Format/Info : Advanced Video Codec
Format profile : [email protected]
Format settings, CABAC : Yes
Format settings, ReFrames : 4 frames
Codec ID : avc1
Codec ID/Info : Advanced Video Coding
Duration : 15mn 2s
Bit rate : 2 004 Kbps
Maximum bit rate : 12.2 Mbps
Width : 1 280 pixels
Height : 720 pixels
Display aspect ratio : 16:9
Frame rate mode : Constant
Frame rate : 23.976 fps
Color space : YUV
Chroma subsampling : 4:2:0
Bit depth : 8 bits
Scan type : Progressive
Bits/(Pixel*Frame) : 0.091
Stream size : 216 MiB (89%)
Title : 264
Writing library : x264 core 129 r2245+729M 1a52e03
Encoding settings : cabac=1 / ref=4 / deblock=1:1:-1 / analyse=0x3:0x113 / me=umh / subme=9 / psy=1 / fade_compensate=0.00 / psy_rd=1.00:0.00 / mixed_ref=1 / me_range=24 / chroma_me=1 / trellis=2 / 8x8dct=1 / cqm=0 / deadzone=21,11 / fast_pskip=1 / chroma_qp_offset=-2 / threads=8 / lookahead_threads=1 / sliced_threads=0 / nr=0 / decimate=1 / interlaced=0 / bluray_compat=0 / constrained_intra=0 / fgo=0 / bframes=9 / b_pyramid=2 / b_adapt=2 / b_bias=0 / direct=1 / weightb=1 / open_gop=0 / weightp=2 / keyint=240 / keyint_min=24 / scenecut=40 / intra_refresh=0 / rc=crf / mbtree=0 / crf=18.5 / qcomp=0.72 / qpmin=0 / qpmax=69 / qpstep=4 / ip_ratio=1.40 / pb_ratio=1.30 / aq=1:0.85
Encoded date : UTC 2013-09-16 16:30:47
Tagged date : UTC 2013-09-18 17:58:20
Color primaries : BT.709
Transfer characteristics : BT.709
Matrix coefficients : BT.709
Audio
ID : 2
Format : AAC
Format/Info : Advanced Audio Codec
Format profile : LC
Codec ID : 40
Duration : 15mn 2s
Bit rate mode : Variable
Bit rate : 256 Kbps
Maximum bit rate : 262 Kbps
Channel(s) : 2 channels
Channel positions : Front: L R
Sampling rate : 48.0 KHz
Compression mode : Lossy
Stream size : 27.5 MiB (11%)
Title : Kansai
Language : Russian
Encoded date : UTC 2013-09-18 17:58:19
Tagged date : UTC 2013-09-18 17:58:20

Скриншоты



Последний раз редактировалось: Азиз87 (2013-12-17 10:31), всего редактировалось 11 раз(а)

Создавать темы 27-Сен-2013 21:26

[Профиль]  [ЛС] 

Азиз87 ®

Стаж: 5 лет 1 месяц

Сообщений: 752

Симпатии: 143



Последний раз редактировалось: Азиз87 (2013-10-05 16:21), всего редактировалось 2 раз(а)

Создавать темы 27-Сен-2013 21:27

[Профиль]  [ЛС] 

Rambotnik

Стаж: 6 лет 7 месяцев

Сообщений: 1274

Симпатии: 81

Проверено


Последний раз редактировалось: Rambotnik (2013-10-23 01:12), всего редактировалось 1 раз

Создавать темы 27-Сен-2013 22:11

[Профиль]  [ЛС] 

Азиз87 ®

Стаж: 5 лет 1 месяц

Сообщений: 752

Симпатии: 143

ОБНОВЛЕНО ДО 3 СЕРИИ

Создавать темы 08-Окт-2013 16:24

[Профиль]  [ЛС] 

Phantomhive

Стаж: 4 года 6 месяцев

Сообщений: 218

Симпатии: 10

а когда прода?

Создавать темы 19-Окт-2013 16:50

[Профиль]  [ЛС] 

rikimaruxxx

Стаж: 5 лет 5 месяцев

Сообщений: 254

Симпатии: 42

Phantomhive, в подпись автора *Буду отсутствовать до 01.11.2013

Создавать темы 19-Окт-2013 17:14

[Профиль]  [ЛС] 

San_dieGo

Стаж: 4 года 10 месяцев

Сообщений: 155

Симпатии: 2

Почему то я не понимаю это аниме, в каждой серии братья насилуют Юи

Создавать темы 22-Окт-2013 19:03

[Профиль]  [ЛС] 

rikimaruxxx

Стаж: 5 лет 5 месяцев

Сообщений: 254

Симпатии: 42

сколько всего серии ожидается?

Создавать темы 22-Окт-2013 21:59

[Профиль]  [ЛС] 

Азиз87 ®

Стаж: 5 лет 1 месяц

Сообщений: 752

Симпатии: 143

ОБНОВЛЕНО ДО 5 СЕРИИ

Создавать темы 23-Окт-2013 00:49

[Профиль]  [ЛС] 

Азиз87 ®

Стаж: 5 лет 1 месяц

Сообщений: 752

Симпатии: 143

Почему то я не понимаю это аниме, в каждой серии братья насилуют Юи
я бы ассоциировал это с нежным "укусом"( хотя в реале я бы их всех на осиновый кол насадил бы - на что Юи надеится м.б. замуж по залету за кого нить из них выйдет?)

Создавать темы 23-Окт-2013 13:46

[Профиль]  [ЛС] 

Азиз87 ®

Стаж: 5 лет 1 месяц

Сообщений: 752

Симпатии: 143

ОБНОВЛЕНО ДО 6 СЕРИИ

Создавать темы 27-Окт-2013 13:51

[Профиль]  [ЛС] 

Азиз87 ®

Стаж: 5 лет 1 месяц

Сообщений: 752

Симпатии: 143

ОБНОВЛЕНО ДО 7 СЕРИИ

Создавать темы 07-Ноя-2013 16:50

[Профиль]  [ЛС] 

KiLLeT

Стаж: 5 лет 9 месяцев

Сообщений: 102

Не смотрю данное аниме, мне вот просто интересно, Юи правда насилуют?)

Создавать темы 20-Ноя-2013 00:42

[Профиль]  [ЛС] 

Азиз87 ®

Стаж: 5 лет 1 месяц

Сообщений: 752

Симпатии: 143

Не смотрю данное аниме, мне вот просто интересно, Юи правда насилуют?)
Нет, просто служит как в рыцаре вампире ( там для одного), а тут уже для 2х "пищей".

Создавать темы 20-Ноя-2013 00:50

[Профиль]  [ЛС] 

Rambotnik

Стаж: 6 лет 7 месяцев

Сообщений: 1274

Симпатии: 81

Скорее пьют её кровь ... но и весьма недвусмысленные сцены тоже присутствуют (судя по скринам дабберов).

Создавать темы 20-Ноя-2013 01:23

[Профиль]  [ЛС] 
Показать сообщения:    
Ответить на тему

Текущее время: 14-Дек 18:17

Часовой пояс: UTC + 5



Вы не можете начинать темы
Вы не можете отвечать на сообщения
Вы не можете редактировать свои сообщения
Вы не можете удалять свои сообщения
Вы не можете голосовать в опросах
Вы не можете прикреплять файлы к сообщениям
Вы не можете скачивать файлы