Европа / Europa Report (Себастьян Кордеро / Sebastián Cordero) [2013, США, Фантастика, триллер, BDRip] [Лицензия]

Страницы :  1, 2  След.

Ответить на тему
 

Suxrob89 ®

Стаж: 7 лет 4 месяца

Сообщений: 933

Симпатии: 564

-Европа / Europa Report- Год выпуска: 2013
Выпущено: США / Wayfare Entertainment
Жанр: фантастика, триллер
Продолжительность: 01:30:25
Перевод: Дублированное, [Лицензия]
Cубтитры: нет-Режиссер: Себастьян Кордеро / Sebastián Cordero-В ролях: Шарлто Копли, Микаэл Нюквист, Эмбет Дэвидц, Кристиан Камарго, Каролина Выдра, Дэниэл Ву, Исайя Уитлок мл., Анамария Маринка-Описание: Фильм повествует о международной космической экспедиции к четвертому спутнику Юпитера, которую снаряжает некая частная корпорация. Цель полета — высадиться на европейскую твердь, где, как считают некоторые ученые, существует вероятность возникновения жизни.- -Качество: BDRip [Europa.Report.2013.1080p.Blue-ray]
Формат: AVI
Видео кодек: XviD
Аудио кодек: AC3
Видео: 704x400 (1.76:1), 23.976 fps, XviD build 73 ~1912 kbps avg, 0.28 bit/pixel
Аудио: 48 kHz, AC3 Dolby Digital, 3/2 (L,C,R,l,r) + LFE ch, ~384.00 kbps avg - iTunes Russia-

Media info

General
Complete name                            : D:\Evropa_2013_BDRip.avi
Format                                   : AVI
Format/Info                              : Audio Video Interleave
File size                                : 1.46 GiB
Duration                                 : 1h 30mn
Overall bit rate                         : 2 305 Kbps
Writing application                      : VirtualDubMod 1.5.10.3 | www.virtualdub-fr.org || (build 2550/release)
Writing library                          : VirtualDubMod build 2550/release
Video
ID                                       : 0
Format                                   : MPEG-4 Visual
Format profile                           : Advanced [email protected]
Format settings, BVOP                    : 1
Format settings, QPel                    : No
Format settings, GMC                     : No warppoints
Format settings, Matrix                  : Custom
Codec ID                                 : XVID
Codec ID/Hint                            : XviD
Duration                                 : 1h 30mn
Bit rate                                 : 1 913 Kbps
Width                                    : 704 pixels
Height                                   : 400 pixels
Display aspect ratio                     : 16:9
Frame rate                               : 23.976 fps
Color space                              : YUV
Chroma subsampling                       : 4:2:0
Bit depth                                : 8 bits
Scan type                                : Progressive
Compression mode                         : Lossy
Bits/(Pixel*Frame)                       : 0.283
Stream size                              : 1.21 GiB (83%)
Writing library                          : XviD 73
Audio
ID                                       : 1
Format                                   : AC-3
Format/Info                              : Audio Coding 3
Mode extension                           : CM (complete main)
Format settings, Endianness              : Big
Codec ID                                 : 2000
Duration                                 : 1h 30mn
Bit rate mode                            : Constant
Bit rate                                 : 384 Kbps
Channel(s)                               : 6 channels
Channel positions                        : Front: L C R, Side: L R, LFE
Sampling rate                            : 48.0 KHz
Bit depth                                : 16 bits
Compression mode                         : Lossy
Stream size                              : 248 MiB (17%)
Alignment                                : Split accross interleaves
Interleave, duration                     : 42 ms (1.00 video frame)
Interleave, preload duration             : 500 ms

Скриншоты



Последний раз редактировалось: Suxrob89 (2014-03-19 04:26), всего редактировалось 1 раз

Создавать темы 27-Сен-2013 23:33

[Профиль]  [ЛС] 

ReVoLL

Стаж: 5 лет 9 месяцев

Сообщений: 7

В ролях: Шарлто Копли, Микаэл Нюквист, Эмбет Дэвидц, Кристиан Камарго, Каролина Выдра

Создавать темы 07-Окт-2013 11:47

[Профиль]  [ЛС] 

Umidbek84

Стаж: 6 лет 10 месяцев

Сообщений: 20

Симпатии: 1

как вообще фильм?

Создавать темы 07-Окт-2013 15:22

[Профиль]  [ЛС] 

vadumb

Стаж: 7 лет 7 месяцев

Сообщений: 50

Симпатии: 3

209 скачавших и никто не отписался, как фильм вообще?

Создавать темы 10-Окт-2013 18:24

[Профиль]  [ЛС] 

outoforder

Стаж: 5 лет 1 месяц

Сообщений: 812

Симпатии: 172

Фильм отличный

Создавать темы 26-Окт-2013 12:20

[Профиль]  [ЛС] 

Zodiacos

Стаж: 4 года 2 месяца

Сообщений: 7

классный фильм

Создавать темы 02-Ноя-2013 00:16

[Профиль]  [ЛС] 

vadumb

Стаж: 7 лет 7 месяцев

Сообщений: 50

Симпатии: 3

Судя по тому, что на скринах кроме лиц явно не пренебрегающих выпивкой после трудового дня на съемочной площадке, ничего нет - очередное тв3?

Создавать темы 03-Ноя-2013 19:11

[Профиль]  [ЛС] 

Rasul

Стаж: 5 лет 10 месяцев

Сообщений: 100

Симпатии: 6

vadumb, нет это классный фильм.... скачай не пожалееш

Создавать темы 19-Мар-2014 08:35

[Профиль]  [ЛС] 

jas81

Стаж: 4 года 1 месяц

Сообщений: 108

Симпатии: 7

209 скачавших и никто не отписался, как фильм вообще?
-------------
у меня показываеть 0

Создавать темы 19-Мар-2014 13:38

[Профиль]  [ЛС] 

Slapper

Стаж: 4 года 1 месяц

Сообщений: 2193

Симпатии: 213

jas81, ни один еще не скачал ты о чем

Создавать темы 19-Мар-2014 14:52

[Профиль]  [ЛС] 

PupuseG

Стаж: 5 лет 2 месяца

Сообщений: 514

Симпатии: 64

Тут был я!=)

Создавать темы 19-Мар-2014 17:20

[Профиль]  [ЛС] 

rini81

Стаж: 5 лет 9 месяцев

Сообщений: 8

ну и рожа у тебя

Создавать темы 19-Мар-2014 19:41

[Профиль]  [ЛС] 

outoforder

Стаж: 5 лет 1 месяц

Сообщений: 812

Симпатии: 172

798192209 скачавших и никто не отписался, как фильм вообще?
ну нормуль, в титрах идет инфа что создатели фильма консультировались с НАСА. Он довольно реалистичен, пожалуй даже реалистичнее пропиаренной "гравитации". При просмотре вспоминается всякая научная фантастика 80-х в тему, нечто вроде фантастического триллера, хотя некоторые, возможно, посчитают фильм скучным.

Создавать темы 24-Мар-2014 21:10

[Профиль]  [ЛС] 

Maxwn

Стаж: 6 лет 11 месяцев

Сообщений: 243

Симпатии: 10

рейтинг нарисовали что-ли?
Весь фильм сняли в одном помещении... бредятина особенно в конце, как вода начинает просачиваться, при этом даже и намёка нет на утечку кислорода.

Создавать темы 25-Мар-2014 20:50

[Профиль]  [ЛС] 

leontiy

Стаж: 5 лет 11 месяцев

Сообщений: 13

Симпатии: 1

фильм не плох, очень напомнил "Бездну"

Создавать темы 01-Апр-2014 21:45

[Профиль]  [ЛС] 
Показать сообщения:    
Ответить на тему

Текущее время: 17-Дек 20:35

Часовой пояс: UTC + 5



Вы не можете начинать темы
Вы не можете отвечать на сообщения
Вы не можете редактировать свои сообщения
Вы не можете удалять свои сообщения
Вы не можете голосовать в опросах
Вы не можете прикреплять файлы к сообщениям
Вы не можете скачивать файлы