Лиззи / Lizzie (Дэвид Данн мл. / David Dunn Jr.) [2013, США, Триллер, ужасы, WEB-DLRip]

Ответить на тему
 

Suxrob89 ®

Стаж: 7 лет

Сообщений: 933

Симпатии: 564

-Лиззи / Lizzie- Страна: США
Жанр: Триллер, ужасы
Год выпуска: 2013
Продолжительность: 01:26:11
Перевод: Любительский двухголосый [DeadSno & den904]
Cубтитры: нет
Оригинальная аудиодорожка: есть-Режиссер: Дэвид Данн мл. / David Dunn Jr.-В ролях: Аманда Бэйкер, Лейф Холт, Корбин Бернсен, Кэйтлин Кармайкл, Синди Баэр, Шона Уолрод, Гэри Бьюзи, Джерри Бедноб, Эрик Фишер-Описание: Молодая девушка возвращается в семейный дом, который покинула давным-давно. Она совсем не помнит своего прошлого, как и того, что ее семейный дом - это место, где 4 августа 1892 года были убиты родители девочки Лиззи Борден. А когда умерла и она сама, ее призрак вернулся, чтобы отомстить за свое изгнание...- -Качество видео: WEB-DLRip
Формат видео: AVI
Видео: XviD, 2274 Кбит/с, 720x352
Аудио: Русский (AC3, 2 ch, 192 Кбит/с), английский (AC3, 6 ch, 384 Кбит/с)

MediaInfo

Format : AVI
Format/Info : Audio Video Interleave
File size : 18.7 MiB
Duration : 1mn 13s
Overall bit rate : 2 132 Kbps
Writing application : VirtualDubMod 1.5.10.2 (build 2540/release)
Writing library : VirtualDubMod build 2540/release
Video
ID : 0
Format : MPEG-4 Visual
Format profile : Advanced [email protected]
Format settings, BVOP : Yes
Format settings, QPel : No
Format settings, GMC : No warppoints
Format settings, Matrix : Default (H.263)
Codec ID : XVID
Codec ID/Hint : XviD
Duration : 1mn 13s
Bit rate : 1 929 Kbps
Width : 720 pixels
Height : 352 pixels
Display aspect ratio : 2.045
Frame rate : 23.976 fps
Color space : YUV
Chroma subsampling : 4:2:0
Bit depth : 8 bits
Scan type : Progressive
Compression mode : Lossy
Bits/(Pixel*Frame) : 0.317
Stream size : 16.9 MiB (90%)
Writing library : XviD 1.2.1 (UTC 2008-12-04)
Audio
ID : 1
Format : AC-3
Format/Info : Audio Coding 3
Mode extension : CM (complete main)
Format settings, Endianness : Big
Codec ID : 2000
Duration : 1mn 13s
Bit rate mode : Constant
Bit rate : 192 Kbps
Channel(s) : 2 channels
Channel positions : Front: L R
Sampling rate : 48.0 KHz
Bit depth : 16 bits
Compression mode : Lossy
Delay relative to video : 32ms
Stream size : 1.69 MiB (9%)
Alignment : Split accross interleaves
Interleave, duration : 42 ms (1.01 video frame)
Interleave, preload duration : 500 ms

Скриншот c названием фильма

Скриншоты

Создавать темы 28-Сен-2013 06:00

[Профиль]  [ЛС] 

Colven

Стаж: 4 года 3 месяца

Сообщений: 18

Рейтинг классный
Пожалуй скачаю

Создавать темы 28-Сен-2013 09:14

[Профиль]  [ЛС] 

Sinatro

Стаж: 5 лет 7 месяцев

Сообщений: 117

Симпатии: 2

Рейтинг шикарен)

Создавать темы 28-Сен-2013 11:24

[Профиль]  [ЛС] 

Jnec

Стаж: 4 года 10 месяцев

Сообщений: 165

Спасибо!!!

Создавать темы 01-Окт-2013 14:53

[Профиль]  [ЛС] 

Михаил1

Стаж: 4 года 9 месяцев

Сообщений: 67

как фильмец?))

Создавать темы 03-Окт-2013 00:47

[Профиль]  [ЛС] 

Sinatro

Стаж: 5 лет 7 месяцев

Сообщений: 117

Симпатии: 2

как фильмец?))
ты посмотри на рейтинг потом сам по суди

Создавать темы 08-Окт-2013 18:00

[Профиль]  [ЛС] 

Azizaaaaa

Стаж: 4 года

Сообщений: 55

Симпатии: 1

пфффф.... зря скачала bu

Создавать темы 09-Окт-2013 14:15

[Профиль]  [ЛС] 

Senat

Стаж: 6 лет 6 месяцев

Сообщений: 251

как фильм отпишите

Создавать темы 09-Окт-2013 15:19

[Профиль]  [ЛС] 

Shock

Стаж: 6 лет 9 месяцев

Сообщений: 85

Симпатии: 1

Senat, рейтинг тебе что-то не говорит???

Создавать темы 09-Окт-2013 18:15

[Профиль]  [ЛС] 

Senat

Стаж: 6 лет 6 месяцев

Сообщений: 251

Senat, рейтинг тебе что-то не говорит???
иногда отзывы тоже понадобится

Создавать темы 09-Окт-2013 18:17

[Профиль]  [ЛС] 

ll4ik

Стаж: 5 лет 3 месяца

Сообщений: 50

Симпатии: 3

Отстой не то слово!!!!!!Хуже японских страшилок. Фуууууууууууу...

Создавать темы 13-Окт-2013 14:39

[Профиль]  [ЛС] 

Ixtiyor22

Стаж: 5 лет 5 месяцев

Сообщений: 1

uff

Создавать темы 18-Окт-2013 10:36

[Профиль]  [ЛС] 

skynet

Стаж: 5 лет 7 месяцев

Сообщений: 296

Симпатии: 6

Тоже пустая трата времени((

Создавать темы 18-Окт-2013 10:54

[Профиль]  [ЛС] 

Slayer

Стаж: 6 лет 1 месяц

Сообщений: 43

"Меня рэйтинг реально впечатлил, неразу невидел такого высокого".

Создавать темы 18-Окт-2013 14:10

[Профиль]  [ЛС] 
Показать сообщения:    
Ответить на тему

Текущее время: 23-Авг 20:50

Часовой пояс: UTC + 5



Вы не можете начинать темы
Вы не можете отвечать на сообщения
Вы не можете редактировать свои сообщения
Вы не можете удалять свои сообщения
Вы не можете голосовать в опросах
Вы не можете прикреплять файлы к сообщениям
Вы не можете скачивать файлы