3096 дней / 3096 Tage (Шерри Хорман / Sherry Horman) [2013, Германия, драма, биография, HDRip] VO

Ответить на тему
 

Suxrob89 ®

Стаж: 7 лет

Сообщений: 933

Симпатии: 564

-3096 дней / 3096 Tage- Страна: Германия
Жанр: драма, биография
Год выпуска: 2013
Продолжительность: 01:49:51
Перевод: Одноголосый закадровый (datynet)
Cубтитры: нет-Режиссер: Шерри Хорман / Sherry Horman-В ролях: Туре Линдхардт, Антония Кэмпбелл-Хьюджес, Трине Дюрхольм, Дирбла Моллой, Амелия Пиджон, Эрни Мангольд, Эллен Швирс, Михаэль Гримм, Анджелина Ноа, Рёланд Визнеккер-Описание: Фильм основан на реальной истории похищения австрийской девочки Наташи Кампуш, совершенное бывшим техником Вольфгангом Приклопилом, когда ей было 10 лет. В его плену она провела более восьми лет, или 3096 дней...- -Качество видео: HDRip
Формат видео: AVI
Видео: XviD, 640x272, 750 Kb/s, 24 fps
Аудио: MP3, 128 kb/s (2 ch), 44 КГц

MediaInfo

Формат : AVI
Формат/Информация : Audio Video Interleave
Размер файла : 697 Мбайт
Продолжительность : 1 ч. 49 м.
Общий поток : 887 Кбит/сек
Программа кодирования : VirtualDubMod 1.5.10.3 | www.virtualdub-fr.org || (build 2550/release)
Библиотека кодирования : VirtualDubMod build 2550/release
Видео
Идентификатор : 0
Формат : MPEG-4 Visual
Профиль формата : Advanced [email protected]
Параметр BVOP формата : 2
Параметр QPel формата : Нет
Параметр GMC формата : Без точки перехода
Параметр матрицы формата : Default (H.263)
Режим смешивания : Сжатый битовый поток
Идентификатор кодека : XVID
Идентификатор кодека/Подсказка : XviD
Продолжительность : 1 ч. 49 м.
Битрейт : 750 Кбит/сек
Ширина : 640 пикселей
Высота : 272 пикселя
Соотношение сторон : 2,35:1
Частота кадров : 24,000 кадра/сек
Цветовое пространство : YUV
Субдискретизация насыщенности : 4:2:0
Битовая глубина : 8 бит
Тип развёртки : Прогрессивная
Метод сжатия : С потерями
Бит/(Пиксели*Кадры) : 0.180
Размер потока : 589 Мбайт (85%)
Библиотека кодирования : XviD 64
Аудио
Идентификатор : 1
Формат : MPEG Audio
Версия формата : Version 1
Профиль формата : Layer 3
Идентификатор кодека : 55
Идентификатор кодека/Подсказка : MP3
Продолжительность : 1 ч. 49 м.
Вид битрейта : Постоянный
Битрейт : 128 Кбит/сек
Каналы : 2 канала
Частота : 44,1 КГц
Метод сжатия : С потерями
Размер потока : 101 Мбайт (14%)
Выравнивание : Разделение по промежуткам
Продолжительность промежутка : 42 мс. (1,00 видеокадр)
Время предзагрузки промежутка : 500 мс.
Библиотека кодирования : LAME3.99r
Настройки программы : -m s -V 4 -q 2 -lowpass 17 -b 128

Скриншот c названием фильма

Скриншоты

Создавать темы 28-Сен-2013 07:22

[Профиль]  [ЛС] 

DeFenDer007

Стаж: 4 года 1 месяц

Сообщений: 191

Симпатии: 9

рейтинг удивил !

_________________
Подпись отключена за нарушение правил форума

Создавать темы 28-Сен-2013 09:20

[Профиль]  [ЛС] 

Sinatro

Стаж: 5 лет 7 месяцев

Сообщений: 117

Симпатии: 2

Такой противоречивый рейтинг)

Создавать темы 28-Сен-2013 11:23

[Профиль]  [ЛС] 

Doc_093

Стаж: 6 лет 6 месяцев

Сообщений: 32

Симпатии: 3

нууу как вам фильм ?? скачать или нет?

Создавать темы 29-Сен-2013 18:45

[Профиль]  [ЛС] 

showtek

Стаж: 6 лет 9 месяцев

Сообщений: 68

Симпатии: 2

нууу как вам фильм ?? скачать или нет?
С таким переводом ?!

Создавать темы 29-Сен-2013 21:06

[Профиль]  [ЛС] 
Показать сообщения:    
Ответить на тему

Текущее время: 20-Авг 13:06

Часовой пояс: UTC + 5



Вы не можете начинать темы
Вы не можете отвечать на сообщения
Вы не можете редактировать свои сообщения
Вы не можете удалять свои сообщения
Вы не можете голосовать в опросах
Вы не можете прикреплять файлы к сообщениям
Вы не можете скачивать файлы