Штурм Белого дома / White House Down (Роланд Эммерих / Roland Emmerich) [2013, США, Боевик, триллер, драма, BDRip](Лицензия)

Ответить на тему
 

Suxrob89 ®

Стаж: 7 лет

Сообщений: 933

Симпатии: 564

-Штурм Белого дома / White House Down-«Все начиналось, как обычный день»- Страна: США
Жанр: боевик, триллер
Год выпуска: 2013
Продолжительность: 02:11:32-Перевод: Профессиональный (дублированный) (Лицензия)
Cубтитры: нет-Режиссер: Роланд Эммерих-В ролях: Ченнинг Татум, Джейми Фокс, Мэгги Джилленхол, Джейсон Кларк, Ричард Дженкинс, Джеймс Вудс, Джои Кинг, Николас Райт, Джимми Симпсон, Майкл Мерфи
Описание: Молодой сотрудник госбезопасности получает новое назначение в структуру охраны «Белого дома». Гордясь своей новой позицией, он приводит свою дочь на экскурсию на место своей будущей службы. И именно в этот день «Белый дом» атакуют некие неопознанные вооружённые силы. Офицер проявляет чудеса находчивости и отваги, пытаясь спасти жизнь своему ребёнку, себе и президенту США.- -Качество видео: BDRip исходник [рип с BluRay 1080p]
Формат видео: AVI
Видео кодэк: XviD
Аудио кодэк: AC3
Видео: MPEG4, XviD, 720x304 (2.35:1), 23.976 fps, 1 131 Kbps (0.216 bit/pixel)
Аудио: AC-3, 48.0 KHz, 6 ch, 448 Kbps, CBR

MediaInfo

D:\Shturm.Belogo.doma.2013.BDRip[tas-ix.net].avi
General
Complete name : D:\Shturm.Belogo.doma.2013.BDRip[tas-ix.net].avi
Format : AVI
Format/Info : Audio Video Interleave
File size : 1.46 GiB
Duration : 2h 11mn
Overall bit rate : 1 588 Kbps
Writing application : VirtualDubMod 1.5.10.3 | www.virtualdub-fr.org || (build 2550/release)
Writing library : VirtualDubMod build 2550/release
Video #0
ID : 0
Format : MPEG-4 Visual
Format profile : Advanced [email protected]
Format settings, BVOP : 2
Format settings, QPel : No
Format settings, GMC : No warppoints
Format settings, Matrix : Default (MPEG)
Muxing mode : Packed bitstream
Codec ID : XVID
Codec ID/Hint : XviD
Duration : 2h 11mn
Bit rate : 1 131 Kbps
Width : 720 pixels
Height : 304 pixels
Display aspect ratio : 2.35:1
Frame rate : 23.976 fps
Color space : YUV
Chroma subsampling : 4:2:0
Bit depth : 8 bits
Scan type : Progressive
Compression mode : Lossy
Bits/(Pixel*Frame) : 0.216
Stream size : 1.04 GiB (71%)
Writing library : XviD 73
Audio #1
ID : 1
Format : AC-3
Format/Info : Audio Coding 3
Mode extension : CM (complete main)
Format settings, Endianness : Big
Codec ID : 2000
Duration : 2h 11mn
Bit rate mode : Constant
Bit rate : 448 Kbps
Channel(s) : 6 channels
Channel positions : Front: L C R, Side: L R, LFE
Sampling rate : 48.0 KHz
Bit depth : 16 bits
Compression mode : Lossy
Stream size : 422 MiB (28%)
Alignment : Split accross interleaves
Interleave, duration : 42 ms (1.00 video frame)
Interleave, preload duration : 500 ms

Скриншот c названием фильма

Скриншоты



Последний раз редактировалось: Suxrob89 (2013-10-11 08:15), всего редактировалось 3 раз(а)

Создавать темы 29-Сен-2013 08:58

[Профиль]  [ЛС] 

Pretender

Стаж: 6 лет 6 месяцев

Сообщений: 69

Симпатии: 1

Cубтитры: вшитые китайские субтитры
они корейские ;)

Создавать темы 29-Сен-2013 09:09

[Профиль]  [ЛС] 

yarik

Стаж: 4 года 6 месяцев

Сообщений: 225

Симпатии: 123

Что этот фильм, что Падение Олимпа, всё фигня

Создавать темы 29-Сен-2013 09:12

[Профиль]  [ЛС] 

Топик был перенесен из форума Фильмы за 2013 (новинки) в форум CamRip\Telesync\SATRip\TVRip

Иви

Создавать темы 29-Сен-2013 09:44

 

Иви

Стаж: 5 лет 7 месяцев

Сообщений: 688

Симпатии: 65

шапку подправил
качество не WEBD-LRip как вы изначально указали, а WEBRip

Создавать темы 29-Сен-2013 09:45

[Профиль]  [ЛС] 

Suxrob89 ®

Стаж: 7 лет

Сообщений: 933

Симпатии: 564

Торрент обновлён до лицензии !!!

Создавать темы 11-Окт-2013 07:09

[Профиль]  [ЛС] 

Топик был перенесен из форума CamRip\Telesync\SATRip\TVRip в форум Фильмы за 2013 (новинки)

Suxrob89

Создавать темы 11-Окт-2013 07:10

 

Sotrussid

Стаж: 3 года 10 месяцев

Сообщений: 23

Автор, дай скорости, уже два дня качаю. Максималььна качает 24 КБ/s а так, 17 КБ/s по дай жару...

Создавать темы 14-Окт-2013 09:19

[Профиль]  [ЛС] 
Показать сообщения:    
Ответить на тему

Текущее время: 18-Авг 15:54

Часовой пояс: UTC + 5



Вы не можете начинать темы
Вы не можете отвечать на сообщения
Вы не можете редактировать свои сообщения
Вы не можете удалять свои сообщения
Вы не можете голосовать в опросах
Вы не можете прикреплять файлы к сообщениям
Вы не можете скачивать файлы