Еще одна история о Золушке / Another Cinderella Story (Дэймон Сантостефано) [2008 г., мюзикл, мелодрама, комедия, ..., DVDRip]

Ответить на тему
 

tasikss ®

Стаж: 6 лет 9 месяцев

Сообщений: 139

Симпатии: 10

Еще одна история о Золушке / Another Cinderella Story Год выпуска: 2008
Страна: США, Канада
Жанр: мюзикл, мелодрама, комедия, ...
Продолжительность: 01.31.54
Перевод: Профессиональный (многоголосый, закадровый)
Режиссер: Дэймон Сантостефано
В ролях: Селена Гомес,Эндрю Сили,Джейн Линч,Кэтрин Изабель,Эмили Перкинс,Джессика Паркер Кеннеди,Маркус Т. Полк,Николь ЛаПлаца,Алекс Захара,Стюарт Кауэн
Описание: В этом фильме Селена Гомез играет Мэри, а современная Золушка дополнена танцевальной обувью вместо хрустальной туфельки. Эндрю Сили играет Джоуи, Прекрасного Принца, который ищет девушку своей мечты. Может ли Мэри быть ей?

Media Info

General
UniqueID : 33870853822508862155843066216366998783 (0x197B4A068334F083A72AF8FB70FC04FF)
Complete name : Another Cinderella Story 2008. 1080p.BluRay.x264_001.mkv
Format : Matroska
File size : 1.33 GiB
Duration : 1h 31mn
Overall bit rate : 2 078 Kbps
Encoded date : UTC 2010-02-22 21:41:29
Writing application : Lavf54.6.100
Writing library : Lavf54.6.100
Video #1
ID : 1
Format : AVC
Format/Info : Advanced Video Codec
Format profile : [email protected]
Format settings, CABAC : No
Format settings, ReFrames : 2 frames
Codec ID : V_MPEG4/ISO/AVC
Duration : 1h 31mn
Bit rate : 2 000 Kbps
Width : 1 280 pixels
Height : 720 pixels
Display aspect ratio : 16:9
Frame rate mode : Variable
Frame rate : 23.976 fps
Color space : YUV
Chroma subsampling : 4:2:0
Bit depth : 8 bits
Scan type : Progressive
Bits/(Pixel*Frame) : 0.091
Stream size : 1.25 GiB (93%)
Writing library : x264 core 119
Encoding settings : cabac=0 / ref=2 / deblock=1:0:0 / analyse=0x1:0x111 / me=umh / subme=6 / psy=1 / psy_rd=1.00:0.00 / mixed_ref=1 / me_range=16 / chroma_me=1 / trellis=0 / 8x8dct=0 / cqm=0 / deadzone=21,11 / fast_pskip=1 / chroma_qp_offset=-2 / threads=6 / sliced_threads=0 / nr=0 / decimate=1 / interlaced=0 / bluray_compat=0 / constrained_intra=0 / bframes=0 / weightp=0 / keyint=250 / keyint_min=23 / scenecut=40 / intra_refresh=0 / rc_lookahead=40 / rc=abr / mbtree=1 / bitrate=2000 / ratetol=1.0 / qcomp=0.60 / qpmin=0 / qpmax=69 / qpstep=4 / ip_ratio=1.40 / aq=1:1.00
Language : English / English
Audio #2
ID : 2
Format : AC-3
Format/Info : Audio Coding 3
Mode extension : CM (complete main)
Codec ID : A_AC3
Duration : 1h 31mn
Bit rate mode : Constant
Bit rate : 96.0 Kbps
Channel(s) : 2 channels
Channel positions : Front: L R
Sampling rate : 32.0 KHz
Bit depth : 16 bits
Compression mode : Lossy
Video delay : 1mn 5s
Stream size : 63.1 MiB (5%)
Title : Ìíîãîãîëîñûé
Language : English / Russian
Text #3
ID : 3
Format : UTF-8
Codec ID : S_TEXT/UTF8
Codec ID/Info : UTF-8 Plain Text
Language : English / Russian
Качество: DVDRip
Формат: MKV
Видео кодек: XVID
Аудио кодек: AC3
Видео: MPEG4 Video (XVID) 1280x720 23.976fps, 2000 kbps
Аудио1: Bit rate AC3 32000Hz 2ch 96 Kbps RUS
Аудио2: Bit rate Dolby AC3 44100Hz 6ch 224 Kbps ENG
Text : Subtitle RUS (UTF-8)

Скриншоты


-

_________________
Подпись отключена за нарушение правил форума


Последний раз редактировалось: tasikss (2013-09-30 18:55), всего редактировалось 4 раз(а)

Создавать темы 29-Сен-2013 11:35

[Профиль]  [ЛС] 

Sinatro

Стаж: 5 лет 9 месяцев

Сообщений: 117

Симпатии: 2

Классно оформил!!!

Создавать темы 29-Сен-2013 12:43

[Профиль]  [ЛС] 

СтАсИкОс

Стаж: 6 лет 9 месяцев

Сообщений: 314

Симпатии: 20

Перезайлейте скрины, они должны быть того размера, который указан в описание тех данных - 1280x720
Воспользуйтесь след. мануалом - http://tas-ix.net/viewtopic.php?t=41311

Создавать темы 29-Сен-2013 12:59

[Профиль]  [ЛС] 

raneb

Стаж: 5 лет 9 месяцев

Сообщений: 20

Симпатии: 1

что-то не качает. :(

Создавать темы 29-Сен-2013 18:22

[Профиль]  [ЛС] 

tasikss ®

Стаж: 6 лет 9 месяцев

Сообщений: 139

Симпатии: 10

raneb, да не знаю зачем так ! стоит по полный

_________________
Подпись отключена за нарушение правил форума

Создавать темы 29-Сен-2013 19:24

[Профиль]  [ЛС] 

raneb

Стаж: 5 лет 9 месяцев

Сообщений: 20

Симпатии: 1

raneb, да не знаю зачем так ! стоит по полный
может торрент стоит перзалить?

Создавать темы 30-Сен-2013 13:22

[Профиль]  [ЛС] 

tasikss ®

Стаж: 6 лет 9 месяцев

Сообщений: 139

Симпатии: 10

raneb, давайте перезалю тода

_________________
Подпись отключена за нарушение правил форума

Создавать темы 30-Сен-2013 15:03

[Профиль]  [ЛС] 

tasikss ®

Стаж: 6 лет 9 месяцев

Сообщений: 139

Симпатии: 10

торрент файл обновлен по просьбе форумчан перекачайте торрент !

_________________
Подпись отключена за нарушение правил форума

Создавать темы 30-Сен-2013 15:14

[Профиль]  [ЛС] 

4LIFEIP

Стаж: 4 года 6 месяцев

Сообщений: 127

Симпатии: 1

чет на двдрип не похоже качество.. да и сомнительный размер такой большой но качество не ахти(а так спасибо за релиз_

Создавать темы 30-Сен-2013 21:13

[Профиль]  [ЛС] 

tasikss ®

Стаж: 6 лет 9 месяцев

Сообщений: 139

Симпатии: 10

4LIFEIP, с БДрипа сам перекодировал на ДВДрип !

_________________
Подпись отключена за нарушение правил форума

Создавать темы 30-Сен-2013 21:18

[Профиль]  [ЛС] 

hildeN

Стаж: 6 лет 8 месяцев

Сообщений: 59

Симпатии: 2

встаньте на раздачу

Создавать темы 23-Окт-2013 18:20

[Профиль]  [ЛС] 

xamidxikmat

Стаж: 5 лет 1 месяц

Сообщений: 14

Симпатии: 2

Плииис дайте скорост! bu

Создавать темы 12-Дек-2013 11:32

[Профиль]  [ЛС] 

Вика

Стаж: 3 года 11 месяцев

Сообщений: 4

привет встаньте на раздачу плисс

Создавать темы 04-Май-2014 12:40

[Профиль]  [ЛС] 

Вика

Стаж: 3 года 11 месяцев

Сообщений: 4

спасибки

Создавать темы 12-Май-2014 03:58

[Профиль]  [ЛС] 
Показать сообщения:    
Ответить на тему

Текущее время: 24-Окт 12:23

Часовой пояс: UTC + 5



Вы не можете начинать темы
Вы не можете отвечать на сообщения
Вы не можете редактировать свои сообщения
Вы не можете удалять свои сообщения
Вы не можете голосовать в опросах
Вы не можете прикреплять файлы к сообщениям
Вы не можете скачивать файлы