Адский небоскреб / La tour Montparnasse infernale (Шарль Немес) [2001 г., Комедия, DVDRip] Dub + original

Ответить на тему
 

antixaker 2013 ®

Стаж: 3 года 11 месяцев

Сообщений: 9

Симпатии: 4

Адский небоскреб / La tour Montparnasse infernale
Год выпуска: 2001
Страна: Франция
Жанр: Комедия
Продолжительность: 01:29:05
Перевод: Профессиональный (полное дублирование)
Режиссер: Шарль Немес
В ролях: Эрик Жюдор, Рамзи Бедиа, Марина Фоис, Серж Рябукин, Мишель Пютерфлам, Бо Готье де Кермоаль, Пьер Семмлер, Эдгар Живри, Жорж Трилла, Брюс Джонсон
Описание: Два мойщика окон случайно оказываются у самой вершины небоскреба в тот момент, когда здание захватывает группа террористов. Незадачливые герои решают во что бы то ни стало спасти девушку, которую видели в окне. Им и в голову не приходит, что именно она возглавляет банду и готова на все, чтобы избавиться от лишних свидетелей.
Качество: DVDRip
Контейнер: AVI
Видео данные: XviD, 704x304px, 1 535 Kbps, 25.000 fps
Аудио данные: AC-3, 384 Kbps, 6 channels, 48.0 KHz [Rus]
Аудио данные2: AC-3, 384 Kbps, 6 channels, 48.0 KHz [Eng]

Медиа Инфо

Format : MPEG-4 Visual
Format profile : [email protected]
Format settings, BVOP : No
Format settings, QPel : No
Format settings, GMC : No warppoints
Format settings, Matrix : Default (H.263)
Codec ID : XVID
Codec ID/Hint : XviD
Duration : 1h 29mn
Bit rate : 1 535 Kbps
Width : 704 pixels
Height : 304 pixels
Display aspect ratio : 2.35:1
Frame rate : 25.000 fps
Color space : YUV
Chroma subsampling : 4:2:0
Bit depth : 8 bits
Scan type : Progressive
Compression mode : Lossy
Bits/(Pixel*Frame) : 0.287
Stream size : 978 MiB (66%)
Writing library : XviD 1.1.0 (UTC 2005-11-22)
Audio #1
ID : 1
Format : AC-3
Format/Info : Audio Coding 3
Mode extension : CM (complete main)
Format settings, Endianness : Big
Codec ID : 2000
Duration : 1h 29mn
Bit rate mode : Constant
Bit rate : 384 Kbps
Channel(s) : 6 channels
Channel positions : Front: L C R, Side: L R, LFE
Sampling rate : 48.0 KHz
Bit depth : 16 bits
Compression mode : Lossy
Stream size : 245 MiB (17%)
Alignment : Split accross interleaves
Interleave, duration : 40 ms (1.00 video frame)
Interleave, preload duration : 500 ms
Audio #2
ID : 2
Format : AC-3
Format/Info : Audio Coding 3
Mode extension : CM (complete main)
Format settings, Endianness : Big
Codec ID : 2000
Duration : 1h 29mn
Bit rate mode : Constant
Bit rate : 384 Kbps
Channel(s) : 6 channels
Channel positions : Front: L C R, Side: L R, LFE
Sampling rate : 48.0 KHz
Bit depth : 16 bits
Compression mode : Lossy
Stream size : 245 MiB (17%)
Alignment : Split accross interleaves
Interleave, duration : 40 ms (1.00 video frame)
Interleave, preload duration : 500 ms

Скриншоты





Последний раз редактировалось: antixaker 2013 (2013-09-30 12:10), всего редактировалось 3 раз(а)

Создавать темы 29-Сен-2013 15:28

[Профиль]  [ЛС] 

rassom

Стаж: 4 года 7 месяцев

Сообщений: 12

Симпатии: 3

почему не скачивается?

Создавать темы 29-Сен-2013 16:25

[Профиль]  [ЛС] 

antixaker 2013 ®

Стаж: 3 года 11 месяцев

Сообщений: 9

Симпатии: 4

потомушто он в премодераци

Создавать темы 29-Сен-2013 16:40

[Профиль]  [ЛС] 

rassom

Стаж: 4 года 7 месяцев

Сообщений: 12

Симпатии: 3

жду не дождусь...

Создавать темы 29-Сен-2013 16:40

[Профиль]  [ЛС] 

lil_MusiC_lil

Стаж: 3 года 11 месяцев

Сообщений: 52

Симпатии: 3

супер раздача спасибо!!

Создавать темы 29-Сен-2013 18:23

[Профиль]  [ЛС] 

rassom

Стаж: 4 года 7 месяцев

Сообщений: 12

Симпатии: 3

релиз не прошла через модерации, жаль

Создавать темы 29-Сен-2013 19:40

[Профиль]  [ЛС] 

Grock

Стаж: 6 лет 7 месяцев

Сообщений: 637

Симпатии: 113

antixaker 2013, Оформите по правилам, допишите тех.данные и сделайте оригинальные
скрины с файла, вот инструкция -Как сделать скриншоты, узнать тех. данные (включая MediaInfo) видео-файла с помощью Media Player Classic?

Создавать темы 29-Сен-2013 23:44

[Профиль]  [ЛС] 

antixaker 2013 ®

Стаж: 3 года 11 месяцев

Сообщений: 9

Симпатии: 4

все зделал

Создавать темы 30-Сен-2013 09:32

[Профиль]  [ЛС] 

Grock

Стаж: 6 лет 7 месяцев

Сообщений: 637

Симпатии: 113

antixaker 2013, Немного переделал, в будущем оформлять можете так)..

Создавать темы 30-Сен-2013 12:11

[Профиль]  [ЛС] 

antixaker 2013 ®

Стаж: 3 года 11 месяцев

Сообщений: 9

Симпатии: 4

спосибо )))

Создавать темы 30-Сен-2013 14:31

[Профиль]  [ЛС] 

Luka

Стаж: 4 года 10 месяцев

Сообщений: 5

Симпатии: 1

раздача дайти

Создавать темы 20-Фев-2016 18:09

[Профиль]  [ЛС] 
Показать сообщения:    
Ответить на тему

Текущее время: 26-Сен 22:11

Часовой пояс: UTC + 5



Вы не можете начинать темы
Вы не можете отвечать на сообщения
Вы не можете редактировать свои сообщения
Вы не можете удалять свои сообщения
Вы не можете голосовать в опросах
Вы не можете прикреплять файлы к сообщениям
Вы не можете скачивать файлы