Книга Илая / The Book of Eli (Альберт Хьюз, Аллен Хьюз) [2010 г, Боевик, триллер, BDRip (720p)-AVC]

Ответить на тему
 

megabyte ®

Стаж: 5 лет 2 месяца

Сообщений: 218

Симпатии: 69

-- Год выхода: 2010
Страна: США
Жанр: Боевик, триллер
Продолжительность: 01:57:36
Перевод: Профессиональный (Полное дублирование)--Режиссер: Альберт Хьюз, Аллен Хьюз-В ролях:
Дензел Вашингтон, Гари Олдман, Мила Кунис, Рэй Стивенсон, Дженнифер Билз, Ивэн Джонс, Джо Пинг, Фрэнсис Де Ла Тур, Майкл Гэмбон, Том Уэйтс
--Описание:
После вселенской катастрофы Америка превратилась в выжженную пустыню. По бескрайним дорогам, кишащим бандами, враждующими между собой за воду и еду, странствует мудрый Илай. Однажды он прибывает в мрачные края, где когда-то была цветущая Калифорния, а теперь это сущий ад, где бесчинствует тиран Карнеги.
--Доп. информация:
-Бюджет Фильма: $80 000 000
Кассовые сборы: $157 058 676
--Качество: BDRip (720p)
Формат: MKV
Видео кодек: MPEG4 AVC (х264)
Аудио кодек: AC3--Видео: 1252x522, 2 585 Кбит/сек, 23,976 кадр/сек, AVC, x264, 2,35:1, 0.157 Бит/(Пиксели*Кадры)
Аудио: AC-3, 384 Кбит/сек, 6 канала(ов), 48,0 КГц

Скриншоты





MediaInfo

Video #1
ID : 1
Format : AVC
Format/Info : Advanced Video Codec
Format profile : [email protected]
Format settings, CABAC : Yes
Format settings, ReFrames : 3 frames
Format settings, GOP : M=4, N=24
Codec ID : V_MPEG4/ISO/AVC
Duration : 1h 57mn
Bit rate mode : Variable
Bit rate : 2 585 Kbps
Maximum bit rate : 17.5 Mbps
Width : 1252 pixels
Height : 522 pixels
Display aspect ratio : 2.35:1
Original display aspect ratio : 2.40:1
Frame rate : 23.976 fps
Color space : YUV
Chroma subsampling : 4:2:0
Bit depth : 8 bits
Scan type : Progressive
Bits/(Pixel*Frame) : 0.158
Stream size : 2.11 GiB (85%)
Writing library : x264 core 108 r1788 c764e29
Encoding settings : cabac=1 / ref=1 / deblock=1:0:0 / analyse=0x3:0x3 / me=dia / subme=1 / psy=1 / psy_rd=0.00:0.00 / mixed_ref=0 / me_range=16 / chroma_me=1 / trellis=0 / 8x8dct=1 / cqm=0 / deadzone=21,11 / fast_pskip=1 / chroma_qp_offset=0 / threads=3 / sliced_threads=0 / slices=4 / nr=0 / decimate=1 / interlaced=0 / constrained_intra=0 / bframes=3 / b_pyramid=1 / b_adapt=1 / b_bias=0 / direct=1 / weightb=1 / open_gop=0 / weightp=0 / keyint=24 / keyint_min=1 / scenecut=40 / intra_refresh=0 / rc_lookahead=0 / rc=abr / mbtree=0 / bitrate=2585 / ratetol=1.0 / qcomp=0.60 / qpmin=0 / qpmax=51 / qpstep=4 / vbv_maxrate=17500 / vbv_bufsize=14500 / ip_ratio=1.10 / pb_ratio=1.10 / aq=1:1.00 / nal_hrd=vbr
Language : English
Audio #2
ID : 2
Format : AC-3
Format/Info : Audio Coding 3
Mode extension : CM (complete main)
Codec ID : A_AC3
Duration : 1h 57mn
Bit rate mode : Constant
Bit rate : 384 Kbps
Channel(s) : 6 channels
Channel positions : Front: L C R, Side: L R, LFE
Sampling rate : 48.0 KHz
Bit depth : 16 bits
Compression mode : Lossy
Stream size : 323 MiB (13%)
Title : AC3 5.1 @ 384 kbps - Дублированный
Language : Russian

Создавать темы 29-Сен-2013 23:16

[Профиль]  [ЛС] 

megabyte ®

Стаж: 5 лет 2 месяца

Сообщений: 218

Симпатии: 69

Решил выложить так как тут простой рип, и источника давно нету. Так поинтересней смотреть.

Создавать темы 29-Сен-2013 23:31

[Профиль]  [ЛС] 

Дмитриев

Стаж: 7 лет 3 месяца

Сообщений: 139

Симпатии: 12

megabyte Спасибо за фильм!
Дай газу чтоб фильм был ещё интересней

Создавать темы 30-Сен-2013 12:35

[Профиль]  [ЛС] 

megabyte ®

Стаж: 5 лет 2 месяца

Сообщений: 218

Симпатии: 69

Друзья извеняюсь свет вырубили, опять на раздаче.

Создавать темы 30-Сен-2013 22:20

[Профиль]  [ЛС] 

Torrent

Стаж: 4 года 7 месяцев

Сообщений: 28

Симпатии: 1

Решил выложить так как тут простой рип, и источника давно нету. Так поинтересней смотреть.
здравомыслящий чел.... респект!

Создавать темы 01-Окт-2013 13:05

[Профиль]  [ЛС] 

suicide

Стаж: 4 года 10 месяцев

Сообщений: 18

раздачи вообще не видно :(

Создавать темы 19-Окт-2013 20:10

[Профиль]  [ЛС] 

goliaf

Стаж: 3 года 10 месяцев

Сообщений: 11

пожалуйста кто нибудь встаньте на раздачу. нужно докачать 20 мб. уже 3 недели как не могу до конца докачать фильм

Создавать темы 13-Мар-2014 15:54

[Профиль]  [ЛС] 
Показать сообщения:    
Ответить на тему

Текущее время: 21-Сен 19:13

Часовой пояс: UTC + 5



Вы не можете начинать темы
Вы не можете отвечать на сообщения
Вы не можете редактировать свои сообщения
Вы не можете удалять свои сообщения
Вы не можете голосовать в опросах
Вы не можете прикреплять файлы к сообщениям
Вы не можете скачивать файлы