Ночь страха 2 / Fright Night 2 (Эдуардо Родригез / Eduardo Rodriguez) [2013, США, ужасы, HDRip][Лицензия]

Страницы :  1, 2  След.

Ответить на тему
 

Suxrob89 ®

Стаж: 7 лет 2 месяца

Сообщений: 933

Симпатии: 564

-Ночь страха 2 / Fright Night 2- Страна: США
Жанр: ужасы
Год выпуска: 2013
Продолжительность: 01:39:41
Перевод: Профессиональное (многоголосое)[Лицензия]
Cубтитры: нет
Оригинальная аудиодорожка: нет-Режиссер: Эдуардо Родригез / Eduardo Rodriguez-В ролях: Уилл Пэйн, Джейми Мюррэй, Шон Пауэр, Саша Паркинсон, Крис Уоллер, Джон-Кристиан Бейтман, Лиана Маргиняну, Алина Минзу, Ади Хостиук, Джоэль Коутинью-Описание: Старшеклассник Чарли вместе со своим приятелем, фанатом ужасов "злым" Эдом и бывшей подружкой Эми принял участие в программе обучения за рубежом и оказался в Румынии. Однако вскоре он узнает, что их обаятельная молодая учительница Джерри на самом деле - вампирша. К сожалению, Чарли никто не верит, а Эду все это кажется весьма забавным и только подпитывает его одержимость вампирами. Когда Джерри превращает в вампира самого Эда, Чарли вынужден искать помощи у знаменитого (благодаря телешоу) охотника на вампиров Питера Винсента, который как раз снимает в Румынии свою передачу "Ночь страха". Чарли просит Винсента научить его тому, как противостоять упырям, чтобы уберечь от Джерри свою бывшую девушку Эми, на которую вампирша точит клыки.- -Качество видео: HDRip
Формат видео: AVI
Видео кодек: XviD
Аудио кодек: AC3
Видео: 720x400, 1641 kb/s, 23.976 fps
Аудио: AC3, 448 kb/s, 6 channels, 48.0 KHz

Media info

D:\Noch.Straha.2.2013.P.HDRip.avi
General
Complete name : D:\Noch.Straha.2.2013.P.HDRip.avi
Format : AVI
Format/Info : Audio Video Interleave
File size : 1.46 GiB
Duration : 1h 39mn
Overall bit rate : 2 092 Kbps
Writing application : VirtualDubMod 1.5.10.2 (build 2540/release)
Writing library : VirtualDubMod build 2540/release
Video #0
ID : 0
Format : MPEG-4 Visual
Format profile : Advanced [email protected]
Format settings, BVOP : 2
Format settings, QPel : No
Format settings, GMC : No warppoints
Format settings, Matrix : Custom
Codec ID : XVID
Codec ID/Hint : XviD
Duration : 1h 39mn
Bit rate : 1 635 Kbps
Width : 720 pixels
Height : 400 pixels
Display aspect ratio : 16:9
Frame rate : 23.976 fps
Color space : YUV
Chroma subsampling : 4:2:0
Bit depth : 8 bits
Scan type : Progressive
Compression mode : Lossy
Bits/(Pixel*Frame) : 0.237
Stream size : 1.14 GiB (78%)
Writing library : XviD 1.2.1 (UTC 2008-12-04)
Audio #1
ID : 1
Format : AC-3
Format/Info : Audio Coding 3
Mode extension : CM (complete main)
Format settings, Endianness : Big
Codec ID : 2000
Duration : 1h 39mn
Bit rate mode : Constant
Bit rate : 448 Kbps
Channel(s) : 6 channels
Channel positions : Front: L C R, Side: L R, LFE
Sampling rate : 48.0 KHz
Bit depth : 16 bits
Compression mode : Lossy
Stream size : 319 MiB (21%)
Alignment : Split accross interleaves
Interleave, duration : 42 ms (1.00 video frame)
Interleave, preload duration : 500 ms

Скриншоты



Последний раз редактировалось: Suxrob89 (2013-10-03 11:43), всего редактировалось 4 раз(а)

Создавать темы 30-Сен-2013 07:28

[Профиль]  [ЛС] 

Xakker_xxx

Стаж: 5 лет 6 месяцев

Сообщений: 53

Симпатии: 1

Скажите как фильм?

Создавать темы 30-Сен-2013 07:57

[Профиль]  [ЛС] 

Ramilzver

Стаж: 7 лет 2 месяца

Сообщений: 115

Симпатии: 4

Как звук и что за перевод "Хихикающий доктор"? Объясните пожалуйста, заранее спасибо.

Создавать темы 30-Сен-2013 11:06

[Профиль]  [ЛС] 

Ramilzver

Стаж: 7 лет 2 месяца

Сообщений: 115

Симпатии: 4

spasiba za reliz
dayte razdahu
Не пишите латинскими буквами, вам дадут предупреждение.

Создавать темы 30-Сен-2013 11:09

[Профиль]  [ЛС] 

ciroga1995

Стаж: 5 лет

Сообщений: 9

Как звук и что за перевод "Хихикающий доктор"? Объясните пожалуйста, заранее спасибо.
это перевод человека, у которого псевдоним Хихикающий доктор. как то так =)

Создавать темы 30-Сен-2013 11:39

[Профиль]  [ЛС] 

Михаил1

Стаж: 4 года 11 месяцев

Сообщений: 67

хихикающий доктор. этот человек переводит фильмы одним из первых что по идеии очень хорошо. Но есть один нюанс, он переводит следующим способом: делит текст фильма на неопределенное количество частей. и отдает его разным переводчикам, переводчики получают только свой кусок. с другими переводчиками они не переговариваются, и не контактируют. И перевод получается иногда совсем не сходится с происходящим. многие не вопринимают его перевод))
лично мое мнение лучше подождать немного недельку и будет получше)

Создавать темы 30-Сен-2013 13:06

[Профиль]  [ЛС] 

vanfank

Стаж: 4 года 5 месяцев

Сообщений: 141

Симпатии: 5

Это Реймек или Приквел или Сиклвел?

Создавать темы 30-Сен-2013 18:28

[Профиль]  [ЛС] 

Heroes

Стаж: 5 лет 7 месяцев

Сообщений: 148

Симпатии: 3

Без Коллина Фарелла фильм не интригует..

Создавать темы 01-Окт-2013 15:03

[Профиль]  [ЛС] 

Suxrob89 ®

Стаж: 7 лет 2 месяца

Сообщений: 933

Симпатии: 564

Торрент обновлён !!!

Создавать темы 03-Окт-2013 04:50

[Профиль]  [ЛС] 

СтАсИкОс

Стаж: 6 лет 9 месяцев

Сообщений: 314

Симпатии: 20

Укажите видео кодек и желательно оформлять по след. шаблону
Качество: качество видео
Формат: формат файла
Видео кодек: использованный видеокодек
Аудио кодек: использованный аудиокодек
Видео: разрешение кадра (в пикселях), значение видеобитрейта (kbps) и частота кадров в секунду (fps) (пример720х304 , 23.976 fps, 1773 Kbps )
Аудио: значение аудиобитрейта (kbps), количество аудиоканалов (ch) для каждой из дорожек. (пример48.0 KHz, AC-3, 384 Kbps (6 ch) )

Создавать темы 03-Окт-2013 09:23

[Профиль]  [ЛС] 

Taa6969

Стаж: 6 лет 3 месяца

Сообщений: 123

Симпатии: 2

Как звук и что за перевод "Хихикающий доктор"? Объясните пожалуйста, заранее спасибо.
горло болит у него

Создавать темы 03-Окт-2013 10:50

[Профиль]  [ЛС] 

mirkoo

Стаж: 5 лет

Сообщений: 53

плиииизз дайте скорость...

Создавать темы 04-Окт-2013 21:57

[Профиль]  [ЛС] 

Baxtboy

Стаж: 5 лет 5 месяцев

Сообщений: 26

Симпатии: 6

Первая часть намного лучше....

Создавать темы 09-Окт-2013 00:07

[Профиль]  [ЛС] 

Baxtboy

Стаж: 5 лет 5 месяцев

Сообщений: 26

Симпатии: 6

Перевод между прочим двухголосый а не лицензия

Создавать темы 09-Окт-2013 00:11

[Профиль]  [ЛС] 

Umarbek_2012

Стаж: 5 лет 9 месяцев

Сообщений: 16

дайте скорость плизз Раздавайте Окей буду блогодарень

Создавать темы 12-Окт-2013 11:10

[Профиль]  [ЛС] 
Показать сообщения:    
Ответить на тему

Текущее время: 22-Окт 00:22

Часовой пояс: UTC + 5



Вы не можете начинать темы
Вы не можете отвечать на сообщения
Вы не можете редактировать свои сообщения
Вы не можете удалять свои сообщения
Вы не можете голосовать в опросах
Вы не можете прикреплять файлы к сообщениям
Вы не можете скачивать файлы