Проблемные дети из другого мира / Mondaiji-tachi ga Isekai kara Kuru Sou Desu yo? (Кусакава Кэйдзё) [TV] [10 из 10] [без хардсаба] [RUS(ext), JAP+SUB] [2013 г., приключения, комедия, фэнтези, BDRip] [720p]

Ответить на тему
 

MeiDoCorpse ®

Стаж: 4 года 5 месяцев

Сообщений: 222

Симпатии: 14

- Год выпуска: 2013
Страна: Япония
Жанр: приключения, комедия, фэнтези
Тип: ТВ
Продолжительность: 10 эп. по 25 мин.-Режиссёр: Кусакава Кэйдзё
Автор оригинала: Тацуноко Таро
Студия: Studio Barcelona-Описание:
Нет смысла спорить, что «детям-индиго» скучно среди обычных людей. Но есть иные миры, к примеру, Город-Сад, где живут боги и демоны, маги и вампиры, зверолюди и оборотни, и не просто живут, а постоянно разбавляют прозу жизни азартными дуэлями и играми «на интерес». Там нет места слабакам, но найдется дело одаренным ребятам, которые всегда готовы к бою – чтобы развеяться, стать сильнее или обрести новых друзей! Именно таковы ироничный Идзаёи, который сам не ведает пределы своих сил, умница-принцесса Асука, владеющая Словом, или тихая с виду Ё, что может подружиться с любым животным, а затем использовать его способности. Такие нигде не пропадут!
Вот только герои, кстати, попавшие в Сад из трех параллельных миров, вскоре узнали, что милая девушка по имени Черный Кролик призвала их не ради прогулки, а в отчаянной попытке спасти свой клан, который практически уничтожен местными хозяевами – Лордами-Демонами. К счастью, среди Лордов нет единства – кому-то пришельцы безразличны, а кое-кому способные новички даже понравились. Осмотревшись, ребята поняли правила игры, выразили уважение кому следует – и веселье понеслось, да так, что многие боги и демоны отправились либо в санаторий, либо на вечный отдых. Пускай у обновленного клана пока что нет имени, зато есть надежда когда-нибудь запечатлеть свой герб прямо в небесах!
© Hollow, World Art-Информационные ссылки: AniDB || World Art || MAL-Качество: BDRip
Контейнер: MKV
Тип видео: Без хардсаба
Наличие линковки: Нет-
    Видео: x264 (Hi10p), 1280x720, ~3100 Kbps, 23.976 fps
    Энкод: Winter
    Аудио: Japanese, Vorbis, 48000Hz, ~256 Kbps, 2ch, в составе контейнера
    Оригинальная дорожка
    Аудио: Russian, AC3, 48000Hz, 192 Kbps, 2ch, внешними файлами
    Озвучка: двухголосая (муж./жен.) от Shoker & Nuriko
    Субтитры: Russian, ASS, внешними файлами
    Перевод: LeDi-MaHo Team
-

Список эпизодов

01. Problem Children Are Coming from Another World, Aren`t They?
02. Seems Like a Crazy Loli Clad in Japanese Clothing?
03. Sounds Like We`re Doing All Sorts of Stuff in the Bath Together?
04. It Seems Some Pervert Is After Black Rabbit?
05. The Oath Seems To Be Beyond The Stars
06. Looks Like the Problem Children Are Participating in a Festival?
07. Someone Might Get All Kissy with Asuka in the Dark?
08. It Seems That a Great Disaster Will Come With the Playing of a Flute?
09. It Seems That the Smell of Death That Brings About Disaster Is Growing Throughout the Town?
10. It Seems That the Problem Children Prove Who`s on Top!

Скриншоты

Подробные тех. данные

General
Unique ID : 224592630497623213504277949509366060914 (0xA8F6F79CCE1FC6478C2DA111AA421772)
Complete name : E:\Mondaiji [BD] [720p]\[Winter] Mondaiji-tachi ga Isekai kara Kuru Sou Desu yo 01 [BDrip 1280x720 x264 Vorbis].mkv
Format : Matroska
Format version : Version 2
File size : 617 MiB
Duration : 23mn 42s
Overall bit rate mode : Variable
Overall bit rate : 3 639 Kbps
Encoded date : UTC 2013-04-07 19:53:36
Writing application : mkvmerge v2.9.8 ('C'est le bon') built on Aug 13 2009 12:49:06
Writing library : libebml v0.7.7 + libmatroska v0.8.1
Video
ID : 1
Format : AVC
Format/Info : Advanced Video Codec
Format profile : High [email protected]
Format settings, CABAC : Yes
Format settings, ReFrames : 9 frames
Codec ID : V_MPEG4/ISO/AVC
Duration : 23mn 42s
Bit rate : 3 310 Kbps
Width : 1 280 pixels
Height : 720 pixels
Display aspect ratio : 16:9
Frame rate mode : Constant
Frame rate : 23.976 fps
Color space : YUV
Chroma subsampling : 4:2:0
Bit depth : 10 bits
Scan type : Progressive
Bits/(Pixel*Frame) : 0.150
Stream size : 561 MiB (91%)
Writing library : x264 core 125 r2200 999b753
Encoding settings : cabac=1 / ref=9 / deblock=1:-2:-2 / analyse=0x3:0x133 / me=umh / subme=9 / psy=1 / psy_rd=0.90:0.00 / mixed_ref=1 / me_range=24 / chroma_me=1 / trellis=2 / 8x8dct=1 / cqm=0 / deadzone=21,11 / fast_pskip=1 / chroma_qp_offset=-2 / threads=6 / lookahead_threads=1 / sliced_threads=0 / nr=0 / decimate=0 / interlaced=0 / bluray_compat=0 / constrained_intra=0 / bframes=8 / b_pyramid=2 / b_adapt=2 / b_bias=0 / direct=1 / weightb=1 / open_gop=0 / weightp=2 / keyint=250 / keyint_min=23 / scenecut=40 / intra_refresh=0 / rc=crf / mbtree=0 / crf=15.7 / qcomp=0.70 / qpmin=9 / qpmax=40 / qpstep=4 / ip_ratio=1.40 / pb_ratio=1.30 / aq=1:0.90
Default : No
Forced : No
Audio
ID : 2
Format : Vorbis
Format settings, Floor : 1
Codec ID : A_VORBIS
Duration : 23mn 42s
Bit rate mode : Variable
Bit rate : 256 Kbps
Channel count : 2 channels
Sampling rate : 48.0 KHz
Compression mode : Lossy
Stream size : 43.4 MiB (7%)
Writing library : libVorbis (Schaufenugget) (20101101 (Schaufenugget))
Language : Japanese
Default : Yes
Forced : No

Создавать темы 30-Сен-2013 18:51

[Профиль]  [ЛС] 

bl4ckSun

Стаж: 4 года

Сообщений: 48

Симпатии: 1

релиз классный )особенно опенинг нравится на том моменте где на сиськах говорит Bang :DD

Создавать темы 30-Сен-2013 19:08

[Профиль]  [ЛС] 

San_dieGo

Стаж: 4 года 9 месяцев

Сообщений: 155

Симпатии: 2

по моему анимешка называлась - "Дети Индиго из другого мира"

Создавать темы 30-Сен-2013 19:21

[Профиль]  [ЛС] 

h8me_plz

Стаж: 4 года 6 месяцев

Сообщений: 30

San_dieGo, каждый переводит как хочет, оригинал везде одинаковый

Создавать темы 30-Сен-2013 19:48

[Профиль]  [ЛС] 

atook

Стаж: 5 лет 6 месяцев

Сообщений: 6

soundtrack к этому чуду имеется у кого-то?

Создавать темы 06-Окт-2013 23:55

[Профиль]  [ЛС] 
Показать сообщения:    
Ответить на тему

Текущее время: 24-Окт 09:08

Часовой пояс: UTC + 5



Вы не можете начинать темы
Вы не можете отвечать на сообщения
Вы не можете редактировать свои сообщения
Вы не можете удалять свои сообщения
Вы не можете голосовать в опросах
Вы не можете прикреплять файлы к сообщениям
Вы не можете скачивать файлы