Поглощенные / Devoured (Грег Олливер / Greg Olliver) [2012, США, ужасы, триллер, драма, HDRip] DVO + Original Eng

Ответить на тему
 

Suxrob89 ®

Стаж: 7 лет 2 месяца

Сообщений: 933

Симпатии: 564

-Поглощенные / Devoured-«You Will Be Devoured...»- Страна: США
Жанр: ужасы, триллер, драма
Год выпуска: 2012
Продолжительность: 01:29:37
Перевод: Любительский (двухголосый закадровый) [DeadSno & den904]
Cубтитры: нет
Оригинальная аудиодорожка: английский-Режиссер: Грег Олливер / Greg Olliver
В ролях: Марта Миланс, Кара Джексон, Бруно Джиоиелло, Дэвид Конли, Эрик Ломмель-Описание: В попытке заработать своему сыну на операцию она переехала в Нью-Йорк и устроилась на работу в французский ресторан в качестве обыкновенной подсобной рабочей. Каждый день, возвращаясь с работы, она откладывает все заработанные ей деньги отдельно, ссыпая в отдельную банку даже последние центы. Кажется, вот-вот все должно стать хорошо, она уже почти собрала требуемую сумму денег. Однако, сама она уже находится на грани полного истощения…- -Качество видео: HDRip
Формат видео: AVI
Видео: XviD, 720x384 (1,85:1), 23,976 fps, ~1598 kbps avg, 0.24 bit/pixel
Аудио: 48 kHz, AC3 Dolby Digital, 2/0 (L,R) ch, ~192 kbps Ru
Аудио 2: 48 kHz, AC3 Dolby Digital, 6 ch, ~384 kbps En

MediaInfo

Общее
Полное имя : E:\Devoured_2012.avi
Формат : AVI
Формат/Информация : Audio Video Interleave
Размер файла : 1,37 Гбайт
Продолжительность : 1 ч. 29 м.
Общий поток : 2188 Кбит/сек
Программа кодирования : VirtualDubMod 1.5.10.2 (build 2542/release)
Библиотека кодирования : VirtualDubMod build 2542/release
Видео
Идентификатор : 0
Формат : MPEG-4 Visual
Профиль формата : Advanced [email protected]
Параметр BVOP формата : 2
Параметр QPel формата : Нет
Параметр GMC формата : Без точки перехода
Параметр матрицы формата : Default (H.263)
Идентификатор кодека : XVID
Идентификатор кодека/Подсказка : XviD
Продолжительность : 1 ч. 29 м.
Битрейт : 1598 Кбит/сек
Ширина : 720 пикселей
Высота : 384 пикселя
Соотношение сторон : 1,85:1
Частота кадров : 23,976 кадра/сек
Цветовое пространство : YUV
Субдискретизация насыщенности : 4:2:0
Битовая глубина : 8 бит
Тип развёртки : Прогрессивная
Метод сжатия : С потерями
Бит/(Пиксели*Кадры) : 0.241
Размер потока : 1,00 Гбайт (73%)
Библиотека кодирования : XviD 1.2.1 (UTC 2008-12-04)
Аудио #1
Идентификатор : 1
Формат : AC-3
Формат/Информация : Audio Coding 3
Расширение режима : CM (complete main)
Параметр Endianness формата : Big
Идентификатор кодека : 2000
Продолжительность : 1 ч. 29 м.
Вид битрейта : Постоянный
Битрейт : 192 Кбит/сек
Каналы : 2 канала
Расположение каналов : Front: L R
Частота : 48,0 КГц
Битовая глубина : 16 бит
Метод сжатия : С потерями
Размер потока : 123 Мбайт (9%)
Выравнивание : Разделение по промежуткам
Продолжительность промежутка : 42 мс. (1,00 видеокадр)
Время предзагрузки промежутка : 500 мс.
Аудио #2
Идентификатор : 2
Формат : AC-3
Формат/Информация : Audio Coding 3
Расширение режима : CM (complete main)
Параметр Endianness формата : Big
Идентификатор кодека : 2000
Продолжительность : 1 ч. 29 м.
Вид битрейта : Постоянный
Битрейт : 384 Кбит/сек
Каналы : 6 каналов
Расположение каналов : Front: L C R, Side: L R, LFE
Частота : 48,0 КГц
Битовая глубина : 16 бит
Метод сжатия : С потерями
Размер потока : 246 Мбайт (18%)
Выравнивание : Разделение по промежуткам
Продолжительность промежутка : 42 мс. (1,00 видеокадр)
Время предзагрузки промежутка : 500 мс.

Скриншоты

Создавать темы 01-Окт-2013 06:44

[Профиль]  [ЛС] 

jamik1003

Стаж: 5 лет 7 месяцев

Сообщений: 60

Симпатии: 3

Рейтинг на кинопоиске 4.8! Исправь, если не трудно.

Создавать темы 03-Окт-2013 21:35

[Профиль]  [ЛС] 

Azizaaaaa

Стаж: 4 года 2 месяца

Сообщений: 55

Симпатии: 1

как фильм? интересный??

Создавать темы 15-Окт-2013 18:10

[Профиль]  [ЛС] 

Rustam1993

Стаж: 4 года 4 месяца

Сообщений: 17

а СИДИ скажите какая оценька на филмь аа

Создавать темы 15-Окт-2013 18:16

[Профиль]  [ЛС] 

edik_123

Стаж: 6 лет 11 месяцев

Сообщений: 14

фильм супер

Создавать темы 31-Авг-2014 13:27

[Профиль]  [ЛС] 
Показать сообщения:    
Ответить на тему

Текущее время: 19-Окт 10:43

Часовой пояс: UTC + 5



Вы не можете начинать темы
Вы не можете отвечать на сообщения
Вы не можете редактировать свои сообщения
Вы не можете удалять свои сообщения
Вы не можете голосовать в опросах
Вы не можете прикреплять файлы к сообщениям
Вы не можете скачивать файлы