Перекресток / Intersections (Дэвид Маркони) [2013 г., Франция, триллер, мелодрама, HDRip] VO(xixidok)

Ответить на тему
 

igor1968 ®

Стаж: 5 лет 7 месяцев

Сообщений: 366

Симпатии: 197

Перекресток / Intersections Год выпуска: 2013
Страна:
Жанр: триллер, мелодрама, ...
Продолжительность: 01:41:25.375
Перевод: Любительское (одноголосое) [xixidok]
Режиссер: Дэвид Маркони
В ролях: Фрэнк Грилло, Джейми Александер, Рошди Зем, Мари-Жозе Кроз, Мусса Мааскри, Чарли Бьюли, Аффиф Бен Бадра, Карлос Леаль, Габриэлла Райт, Абделила Надиф
В центре сюжета молодая пара. Однако их брак не так уж безоблачен. У женщины есть любовник на стороне, и с его помощью она разрабатывает план убийства мужа. Но все идет наперекосяк, когда муж и его соперник оказываются вместе на марокканской пустынной дороге после автомобильной катастрофы.- -Премьера
30 января 2013, ...-Качество: HDRip[Рип с Blu-Ray 1080p]
Формат: AVI
Видео кодек: XviD
Аудио кодек: AC3
Видео: 720x304 (2.37:1), 24 fps, XviD build 50 ~1665 kbps avg, 0.32 bit/pixel
Аудио: 48 kHz, AC3 Dolby Digital, 2/0 (L,R) ch, ~256.00 kbps avg-

MediaInfo

General
Complete name : Intersections.2013.L1.HDRip.1400Mb.avi
Format : AVI
Format/Info : Audio Video Interleave
File size : 1.37 GiB
Duration : 1h 41mn
Overall bit rate : 1 931 Kbps
Writing application : VirtualDubMod 1.5.10.3 | www.virtualdub-fr.org || (build 2550/release)
Writing library : VirtualDubMod build 2550/release
Video
ID : 0
Format : MPEG-4 Visual
Format profile : Advanced [email protected]
Format settings, BVOP : 1
Format settings, QPel : No
Format settings, GMC : No warppoints
Format settings, Matrix : Custom
Codec ID : XVID
Codec ID/Hint : XviD
Duration : 1h 41mn
Bit rate : 1 665 Kbps
Width : 720 pixels
Height : 304 pixels
Display aspect ratio : 2.35:1
Frame rate : 24.000 fps
Color space : YUV
Chroma subsampling : 4:2:0
Bit depth : 8 bits
Scan type : Progressive
Compression mode : Lossy
Bits/(Pixel*Frame) : 0.317
Stream size : 1.18 GiB (86%)
Writing library : XviD 1.2.1 (UTC 2008-12-04)
Audio
ID : 1
Format : AC-3
Format/Info : Audio Coding 3
Mode extension : CM (complete main)
Format settings, Endianness : Big
Codec ID : 2000
Duration : 1h 41mn
Bit rate mode : Constant
Bit rate : 256 Kbps
Channel(s) : 2 channels
Channel positions : Front: L R
Sampling rate : 48.0 KHz
Bit depth : 16 bits
Compression mode : Lossy
Stream size : 186 MiB (13%)
Alignment : Split accross interleaves
Interleave, duration : 42 ms (1.00 video frame)
Interleave, preload duration : 500 ms
-

Скриншоты

- -


Последний раз редактировалось: igor1968 (2013-10-02 15:57), всего редактировалось 2 раз(а)

Создавать темы 02-Окт-2013 15:09

[Профиль]  [ЛС] 

СтАсИкОс

Стаж: 6 лет 9 месяцев

Сообщений: 314

Симпатии: 20

Подправил немного шапку!

Создавать темы 02-Окт-2013 15:57

[Профиль]  [ЛС] 

igor1968 ®

Стаж: 5 лет 7 месяцев

Сообщений: 366

Симпатии: 197

Подправил немного шапку!
Спасибо (учту)!

Создавать темы 02-Окт-2013 18:24

[Профиль]  [ЛС] 

Michel

Стаж: 6 лет 10 месяцев

Сообщений: 78

Симпатии: 5

Раздайте пожалуйста! Столько скачали, а никто не раздаёт. :(

Создавать темы 05-Мар-2014 00:04

[Профиль]  [ЛС] 

umed

Стаж: 7 лет 2 месяца

Сообщений: 4

sps

Создавать темы 05-Мар-2014 18:34

[Профиль]  [ЛС] 
Показать сообщения:    
Ответить на тему

Текущее время: 23-Окт 01:55

Часовой пояс: UTC + 5



Вы не можете начинать темы
Вы не можете отвечать на сообщения
Вы не можете редактировать свои сообщения
Вы не можете удалять свои сообщения
Вы не можете голосовать в опросах
Вы не можете прикреплять файлы к сообщениям
Вы не можете скачивать файлы