Крудс оиласи / Семейка Крудс / The Croods (Кирк де Микко, Крис Сандерс) [2013 г., мультфильм, комедия, приключения, семейный, BDRip-AVC] [Ўзбек тилида]

Ответить на тему
 

icemanz ®

Стаж: 4 года 7 месяцев

Сообщений: 2

Крудс оиласи / Семейка Крудс / The Croods-Год выпуска: 2013
Страна: США
Жанр: мультфильм, комедия, приключения, семейный
Продолжительность: 01:38:36
Перевод: Профессиональный (многоголосый, закадровый) Ўзбек тилида-Режиссер: Кирк де Микко, Крис Сандерс
В ролях: Николас Кейдж, Эмма Стоун, Райан Рейнольдс, Кэтрин Кинер, Клорис Личмен, Кларк Дьюк, Крис Сандерс-Описание: Чего только не сделаешь ради сохранения семьи, несмотря на то, что она доисторическая! Вот и мужественный глава семейства был твёрдо уверен - главное не позволять никогда и ничего менять и всегда жить "как в каменном веке" - по своим привычным правилам, в своей известной вдоль и поперёк пещере! И может, всё бы так и было бы, но однажды землетрясение нарушает привычный жизненный уклад и вынуждает срочно искать другую, неизвестную пока, пещеру, в непонятном и переменчивом мире, полном страшных опасностей и разных незнакомцев всех видов и мастей! Будет ли той семейке и на новом месте веселее вместе и что поможет ей выжить и достичь заветной цели?-Рейтинг Kinopoisk.ru - 7.839 (22 122 голосов)
Рейтинг IMDb.com - 7,3 (48 568 голосов)-Качество: BDRip-AVC
Формат: MKV
Видео кодек: H.264
Аудио кодек: MP3
Видео: 1024x432, 23.980 fps, 1658 kbps
Аудио-1: MP3, 192 kbps, 44.1 kHz, 2 ch. [Uzb], (Узбекский язык, дубляж NTT)
Аудио-2: AC3, 448 kbps, 48.0 kHz, 6 ch. [Rus], (Русский язык, дубляж)-

MediaInfo

General
Unique ID : 207164998966326914481081989461372834317 (0x9BDA8709D5C1A467966148F96098120D)
Complete name : D:\Downloads\Видео\Kruds.oilasi.Semejka.Kruds.2013.BDRip.Uzb.Rus.mkv
Format : Matroska
Format version : Version 4 / Version 2
File size : 1.61 GiB
Duration : 1h 38mn
Overall bit rate : 2 344 Kbps
Movie name : Rip by 03nazar03
Encoded date : UTC 2013-09-28 03:32:57
Writing application : mkvmerge v6.1.0 ('Old Devil') built on Apr 20 2013 10:07:04
Writing library : libebml v1.3.0 + libmatroska v1.4.0
Video
ID : 1
Format : AVC
Format/Info : Advanced Video Codec
Format profile : [email protected]
Format settings, CABAC : Yes
Format settings, ReFrames : 9 frames
Codec ID : V_MPEG4/ISO/AVC
Duration : 1h 38mn
Bit rate : 1 658 Kbps
Width : 1 024 pixels
Height : 432 pixels
Display aspect ratio : 2.40:1
Frame rate mode : Constant
Frame rate : 23.976 fps
Color space : YUV
Chroma subsampling : 4:2:0
Bit depth : 8 bits
Scan type : Progressive
Bits/(Pixel*Frame) : 0.156
Stream size : 1.10 GiB (68%)
Writing library : x264 core 130 r2273 b3065e6
Encoding settings : cabac=1 / ref=9 / deblock=1:-3:-3 / analyse=0x3:0x133 / me=esa / subme=11 / psy=1 / psy_rd=1.00:0.20 / mixed_ref=1 / me_range=48 / chroma_me=1 / trellis=2 / 8x8dct=1 / cqm=0 / deadzone=21,11 / fast_pskip=0 / chroma_qp_offset=-3 / threads=12 / lookahead_threads=2 / sliced_threads=0 / nr=0 / decimate=0 / interlaced=0 / bluray_compat=0 / constrained_intra=0 / bframes=10 / b_pyramid=2 / b_adapt=2 / b_bias=0 / direct=3 / weightb=1 / open_gop=0 / weightp=2 / keyint=250 / keyint_min=23 / scenecut=40 / intra_refresh=0 / rc=2pass / mbtree=0 / bitrate=1658 / ratetol=1.0 / qcomp=0.60 / qpmin=0 / qpmax=69 / qpstep=4 / cplxblur=20.0 / qblur=0.5 / ip_ratio=1.40 / pb_ratio=1.30 / aq=1:1.00
Default : Yes
Forced : No
Audio #1
ID : 2
Format : MPEG Audio
Format version : Version 1
Format profile : Layer 3
Codec ID : A_MPEG/L3
Codec ID/Hint : MP3
Duration : 1h 38mn
Bit rate mode : Constant
Bit rate : 256 Kbps
Channel(s) : 2 channels
Sampling rate : 44.1 KHz
Compression mode : Lossy
Stream size : 181 MiB (11%)
Language : Uzbek
Default : Yes
Forced : No
Audio #2
ID : 3
Format : AC-3
Format/Info : Audio Coding 3
Mode extension : CM (complete main)
Format settings, Endianness : Big
Codec ID : A_AC3
Duration : 1h 38mn
Bit rate mode : Constant
Bit rate : 448 Kbps
Channel(s) : 6 channels
Channel positions : Front: L C R, Side: L R, LFE
Sampling rate : 48.0 KHz
Bit depth : 16 bits
Compression mode : Lossy
Stream size : 316 MiB (19%)
Language : Russian
Default : No
Forced : No
Menu
00:00:00.000 : en:00:00:00.000
00:02:34.988 : en:00:02:34.988
00:04:51.750 : en:00:04:51.750
00:09:01.249 : en:00:09:01.249
00:12:21.115 : en:00:12:21.115
00:14:04.802 : en:00:14:04.802
00:18:33.029 : en:00:18:33.029
00:21:56.982 : en:00:21:56.982
00:23:24.737 : en:00:23:24.737
00:26:49.775 : en:00:26:49.775
00:28:37.132 : en:00:28:37.132
00:30:25.657 : en:00:30:25.657
00:32:48.633 : en:00:32:48.633
00:36:03.370 : en:00:36:03.370
00:38:33.561 : en:00:38:33.561
00:41:34.534 : en:00:41:34.534
00:44:38.843 : en:00:44:38.843
00:48:02.630 : en:00:48:02.630
00:52:10.961 : en:00:52:10.961
00:55:17.481 : en:00:55:17.481
01:00:14.778 : en:01:00:14.778
01:03:58.084 : en:01:03:58.084
01:05:48.736 : en:01:05:48.736
01:08:44.037 : en:01:08:44.037
01:10:47.285 : en:01:10:47.285
01:12:37.144 : en:01:12:37.144
01:14:01.646 : en:01:14:01.646
01:19:48.575 : en:01:19:48.575
01:23:09.860 : en:01:23:09.860
01:25:16.737 : en:01:25:16.737
01:28:04.321 : en:01:28:04.321
01:30:02.230 : en:01:30:02.230

Скриншоты






Последний раз редактировалось: icemanz (2013-10-02 17:05), всего редактировалось 1 раз

Создавать темы 02-Окт-2013 15:32

[Профиль]  [ЛС] 

lokiu

Стаж: 5 лет 5 месяцев

Сообщений: 17

Я не понял он на узб или русс я зыке ????

Создавать темы 02-Окт-2013 17:44

[Профиль]  [ЛС] 

Senat

Стаж: 6 лет 8 месяцев

Сообщений: 251

хорошо что на узб языке! +5

Создавать темы 02-Окт-2013 18:30

[Профиль]  [ЛС] 

ciroga1995

Стаж: 5 лет

Сообщений: 9

Я не понял он на узб или русс я зыке ????
тут 2 аудио дороги, русская и узбекская

Создавать темы 02-Окт-2013 20:19

[Профиль]  [ЛС] 

CoDer

Стаж: 6 лет 6 месяцев

Сообщений: 14

Симпатии: 1

автору огромнейшее человеческое спасибо !

Создавать темы 02-Окт-2013 23:24

[Профиль]  [ЛС] 

NORD_uz

Стаж: 5 лет 6 месяцев

Сообщений: 2

скорость плиииизззз...

Создавать темы 05-Дек-2013 10:32

[Профиль]  [ЛС] 

hadisa

Стаж: 3 года 10 месяцев

Сообщений: 5

uzbek tili dorojka surilib ketibdiku

Создавать темы 19-Янв-2014 16:01

[Профиль]  [ЛС] 

uzdevboy

Стаж: 5 лет

Сообщений: 21

hadisa, NORD_uz, CoDer, lokiu, dayte skorosti, please

Создавать темы 09-Фев-2014 21:07

[Профиль]  [ЛС] 
Показать сообщения:    
Ответить на тему

Текущее время: 23-Окт 20:28

Часовой пояс: UTC + 5



Вы не можете начинать темы
Вы не можете отвечать на сообщения
Вы не можете редактировать свои сообщения
Вы не можете удалять свои сообщения
Вы не можете голосовать в опросах
Вы не можете прикреплять файлы к сообщениям
Вы не можете скачивать файлы