Восток / The East (Зал Батманглидж / Zal Batmanglij) [2013, США, Великобритания, триллер, HDRip][лицензия]

Ответить на тему
 

Suxrob89 ®

Стаж: 7 лет 3 месяца

Сообщений: 933

Симпатии: 564

-Восток / The East- Страна: США, Великобритания
Жанр: триллер
Год выпуска: 2013
Продолжительность: 01:56:07
Перевод: Профессиональное (многоголосое) [лицензия]
Cубтитры: нет-Режиссер: Зал Батманглидж / Zal Batmanglij-В ролях: Брит Марлинг, Александр Скарсгард, Эллен Пейдж, Тоби Кеббелл, Шайло Фернандес, Элдис Ходж, Даниэль МакДональд, Хиллари Бак, Патришия Кларксон, Джейсон Риттер-Описание: «Восток» — название группировки экологических террористов, пытающейся отомстить аморальным корпорациям. Представительница спецслужб должна проникнуть в группировку.- -Качество видео: HDRip
Формат видео: AVI
Видео кодек: XviD
Аудио кодек: AC3
Видео: 1404 kb/s, 720x304, 23.976 fps
Аудио: AC-3, 48.0 KHz, 6 ch, 384 Kbps

Media info

D:\Vostok.2013.P.HDRip.1400MB.avi
General
Complete name : D:\Vostok.2013.P.HDRip.1400MB.avi
Format : AVI
Format/Info : Audio Video Interleave
File size : 1.46 GiB
Duration : 1h 56mn
Overall bit rate : 1 798 Kbps
Writing application : VirtualDubMod 1.5.10.2 (build 2540/release)
Writing library : VirtualDubMod build 2540/release
Video #0
ID : 0
Format : MPEG-4 Visual
Format profile : Advanced [email protected]
Format settings, BVOP : 2
Format settings, QPel : No
Format settings, GMC : No warppoints
Format settings, Matrix : Default (MPEG)
Muxing mode : Packed bitstream
Codec ID : XVID
Codec ID/Hint : XviD
Duration : 1h 56mn
Bit rate : 1 405 Kbps
Width : 720 pixels
Height : 304 pixels
Display aspect ratio : 2.35:1
Frame rate : 23.976 fps
Color space : YUV
Chroma subsampling : 4:2:0
Bit depth : 8 bits
Scan type : Progressive
Compression mode : Lossy
Bits/(Pixel*Frame) : 0.268
Stream size : 1.14 GiB (78%)
Writing library : XviD 73
Audio #1
ID : 1
Format : AC-3
Format/Info : Audio Coding 3
Mode extension : CM (complete main)
Format settings, Endianness : Big
Codec ID : 2000
Duration : 1h 56mn
Bit rate mode : Constant
Bit rate : 384 Kbps
Channel(s) : 6 channels
Channel positions : Front: L C R, Side: L R, LFE
Sampling rate : 48.0 KHz
Bit depth : 16 bits
Compression mode : Lossy
Stream size : 319 MiB (21%)
Alignment : Split accross interleaves
Interleave, duration : 42 ms (1.00 video frame)
Interleave, preload duration : 500 ms

Скриншот c названием фильма

Скриншоты



Последний раз редактировалось: Suxrob89 (2013-10-03 18:16), всего редактировалось 2 раз(а)

Создавать темы 03-Окт-2013 05:02

[Профиль]  [ЛС] 

СтАсИкОс

Стаж: 6 лет 10 месяцев

Сообщений: 314

Симпатии: 20

Укажите видео кодек и желательно оформлять по след. шаблону
Качество: качество видео
Формат: формат файла
Видео кодек: использованный видеокодек
Аудио кодек: использованный аудиокодек
Видео: разрешение кадра (в пикселях), значение видеобитрейта (kbps) и частота кадров в секунду (fps) (пример720х304 , 23.976 fps, 1773 Kbps )
Аудио: значение аудиобитрейта (kbps), количество аудиоканалов (ch) для каждой из дорожек. (пример48.0 KHz, AC-3, 384 Kbps (6 ch) )

Создавать темы 03-Окт-2013 09:22

[Профиль]  [ЛС] 
Показать сообщения:    
Ответить на тему

Текущее время: 20-Ноя 14:49

Часовой пояс: UTC + 5



Вы не можете начинать темы
Вы не можете отвечать на сообщения
Вы не можете редактировать свои сообщения
Вы не можете удалять свои сообщения
Вы не можете голосовать в опросах
Вы не можете прикреплять файлы к сообщениям
Вы не можете скачивать файлы