Номад: Начало / Nomad the Beginning (2013) DVDRip [2013 г. США,Фантастика, Боевик] DVO (НТВ+)

Ответить на тему
 

ruslan08 ®

Стаж: 5 лет 11 месяцев

Сообщений: 73

Симпатии: 7

Номад: Начало / Nomad the Beginning (2013) DVDRip
Год выпуска: 2013
Производство: США, Apatow Productions
Жанр: Фантастика, Боевик
Продолжительность: 01:28:44
Перевод: Двухголосый закадровый, профессиональный (НТВ+)
Субтитры: Отсутствуют
Дата мировой премьеры: 3 июля 2013
Режиссер: Томас Диксон
Продюсер: Роберт Дункан, Люк Aбафи, Мэтью Альварес
Актеры: Клинт Гленн, Мария Асевес, Джошуа Дероше, Брантли Блэк, Джозиа Д. Ли, Винс Лозаньо, Дженнифер О’Делл, Крис Де Марко, Наташа Бласик, Алекс ДиЛемма
Описание фильма:
Люди из тайной организации, управляющей миром, проводят жуткий эксперимент: с помощью инопланетного гена, введенного человеку, они хотят создать расу рабов, которая будет беспрекословно подчиняться гуманоидам. Один из участников эксперимента выходит из повиновения и сбегает. Он хочет уничтожить главу организации, а помогает ему в этом некто Номад – его голос мужчина постоянно слышит в своей голове..

Качество видео: DVDRip
Видеокодек: XviD
Битрейт видео: 966 kb/s
Размер кадра: 640x272
Аудиокодек: MP3, 2 ch
Битрейт аудио: 128 kb/s

MI

Общее
Полное имя                               : D:\Раздачи\Nomad.nachalo.2013.DVDRip.700MB.NNM-CLUB.avi
Формат                                   : AVI
Формат/Информация                        : Audio Video Interleave
Размер файла                             : 702 Мбайт
Продолжительность                        : 1 ч. 28 м.
Общий поток                              : 1105 Кбит/сек
Программа кодирования                    : VirtualDubMod 1.5.10.2 (build 2540/release)
Библиотека кодирования                   : VirtualDubMod build 2540/release
Видео
Идентификатор                            : 0
Формат                                   : MPEG-4 Visual
Профиль формата                          : Advanced [email protected]
Параметр BVOP формата                    : 2
Параметр QPel формата                    : Нет
Параметр GMC формата                     : Без точки перехода
Параметр матрицы формата                 : Default (MPEG)
Идентификатор кодека                     : XVID
Идентификатор кодека/Подсказка           : XviD
Продолжительность                        : 1 ч. 28 м.
Битрейт                                  : 966 Кбит/сек
Ширина                                   : 640 пикселей
Высота                                   : 272 пикселя
Соотношение сторон                       : 2,35:1
Частота кадров                           : 29,970 кадров/сек
Цветовое пространство                    : YUV
Субдискретизация насыщенности            : 4:2:0
Битовая глубина                          : 8 бит
Тип развёртки                            : Прогрессивная
Метод сжатия                             : С потерями
Бит/(Пиксели*Кадры)                      : 0.185
Размер потока                            : 613 Мбайт (87%)
Библиотека кодирования                   : XviD 1.2.1 (UTC 2008-12-04)
Аудио
Идентификатор                            : 1
Формат                                   : MPEG Audio
Версия формата                           : Version 1
Профиль формата                          : Layer 3
Режим                                    : Joint stereo
Расширение режима                        : MS Stereo
Идентификатор кодека                     : 55
Идентификатор кодека/Подсказка           : MP3
Продолжительность                        : 1 ч. 28 м.
Вид битрейта                             : Постоянный
Битрейт                                  : 128 Кбит/сек
Каналы                                   : 2 канала
Частота                                  : 48,0 КГц
Метод сжатия                             : С потерями
Размер потока                            : 81,2 Мбайт (12%)
Выравнивание                             : Соединение по промежуткам
Продолжительность промежутка             : 33  мс. (1,00 видеокадр)
Время предзагрузки промежутка            : 504  мс.

Скриншоты



Последний раз редактировалось: ruslan08 (2013-10-03 09:19), всего редактировалось 1 раз

Создавать темы 03-Окт-2013 08:01

[Профиль]  [ЛС] 

СтАсИкОс

Стаж: 6 лет 11 месяцев

Сообщений: 314

Симпатии: 20

Подправил шапку

Создавать темы 03-Окт-2013 09:20

[Профиль]  [ЛС] 

uzwebmoney

Стаж: 5 лет 1 месяц

Сообщений: 18

шапку подправил

Создавать темы 09-Окт-2013 10:23

[Профиль]  [ЛС] 

Jaxa blade

Стаж: 4 года 10 месяцев

Сообщений: 18

Симпатии: 2

Тв3? или стоит качать ? рейтинг вроде не нищий:)

Создавать темы 10-Окт-2013 19:49

[Профиль]  [ЛС] 

Butty

Стаж: 5 лет 3 месяца

Сообщений: 96

Симпатии: 6

по скринам не понятно о чем фильм .. да и описание скудное

Создавать темы 10-Окт-2013 20:40

[Профиль]  [ЛС] 

vovik1

Стаж: 4 года 7 месяцев

Сообщений: 49

Симпатии: 1

кто смотрел отпишитесь

Создавать темы 10-Окт-2013 21:51

[Профиль]  [ЛС] 

ribas

Стаж: 5 лет 5 месяцев

Сообщений: 37

Симпатии: 1

я подумал про казахов, номад -кочевник

Создавать темы 29-Окт-2013 19:02

[Профиль]  [ЛС] 

Misterxxxx

Стаж: 6 лет 10 месяцев

Сообщений: 2

По Описанию фильм пахож на Гостья

Создавать темы 30-Окт-2013 02:36

[Профиль]  [ЛС] 

l-murad

Стаж: 6 лет 8 месяцев

Сообщений: 27

ну кто ниб смотрел?

Создавать темы 30-Окт-2013 22:59

[Профиль]  [ЛС] 

Fantriller

Стаж: 5 лет 9 месяцев

Сообщений: 59

Симпатии: 1

смотрел по Премьере! пол часа выдержал и вырубил его на..рен! на вкус и цвет фуфелок...

Создавать темы 01-Ноя-2013 18:45

[Профиль]  [ЛС] 
Показать сообщения:    
Ответить на тему

Текущее время: 11-Дек 16:28

Часовой пояс: UTC + 5



Вы не можете начинать темы
Вы не можете отвечать на сообщения
Вы не можете редактировать свои сообщения
Вы не можете удалять свои сообщения
Вы не можете голосовать в опросах
Вы не можете прикреплять файлы к сообщениям
Вы не можете скачивать файлы