Бруклин в Манхэттене / N.Y.C. Underground (Джесси Терреро / Jessy Terrero) [2013, США, боевик, триллер, WEB-DLRip] VO

Ответить на тему
 

Suxrob89 ®

Стаж: 7 лет 2 месяца

Сообщений: 933

Симпатии: 564

-Бруклин в Манхэттене / N.Y.C. Underground- Страна: США
Жанр: боевик, триллер
Год выпуска: 2013
Продолжительность: 01:26:33
Перевод: Одноголосый закадровый (Артём Белоконский)
Cубтитры: нет-Режиссер: Джесси Терреро / Jessy Terrero-В ролях: Даня Рамирес, Шон Фэрис, Ариэль Кеббел, Клейн Кроуфорд, Роб Майес, Ивэн Росс, Кристал Хант, Мари Кода, Мэтт Сервитто, Рейнор Шайни-Описание: Действия разворачиваются в тоннелях метро. Максимум усилий предстоит приложить двум братьям - Дилану и Логану, чтобы выбраться на поверхность невредимыми. Причем они не единственные, кому суждено побороться за жизнь...-ВНИМАНИЕ! В переводе встречается ненормативная лексика!- -Качество видео: WEB-DLRip
Формат видео: AVI
Видео кодек: XviD
Аудио кодек: AC3
Видео: 720x400 (1.80:1), 23.976 fps, XviD build 50 ~1867 kbps avg, 0.27 bit/pixel
Аудио: 48 kHz, AC3 Dolby Digital, 3/2 (L,C,R,l,r) + LFE ch, ~384 kbps

MediaInfo

Общее
Полное имя : D:\Bruklin.v.Manhettene.2013.WEBDLRip.1400MB.avi
Формат : AVI
Формат/Информация : Audio Video Interleave
Размер файла : 1,37 Гбайт
Продолжительность : 1 ч. 26 м.
Общий поток : 2261 Кбит/сек
Программа кодирования : VirtualDubMod 1.5.10.3 | www.virtualdub-fr.org || (build 2550/release)
Библиотека кодирования : VirtualDubMod build 2550/release
Видео
Идентификатор : 0
Формат : MPEG-4 Visual
Профиль формата : Advanced [email protected]
Параметр BVOP формата : 2
Параметр QPel формата : Нет
Параметр GMC формата : Без точки перехода
Параметр матрицы формата : Default (MPEG)
Идентификатор кодека : XVID
Идентификатор кодека/Подсказка : XviD
Продолжительность : 1 ч. 26 м.
Битрейт : 1868 Кбит/сек
Ширина : 720 пикселей
Высота : 400 пикселей
Соотношение сторон : 16:9
Частота кадров : 23,976 кадра/сек
Цветовое пространство : YUV
Субдискретизация насыщенности : 4:2:0
Битовая глубина : 8 бит
Тип развёртки : Прогрессивная
Метод сжатия : С потерями
Бит/(Пиксели*Кадры) : 0.270
Размер потока : 1,13 Гбайт (83%)
Библиотека кодирования : XviD 1.2.1 (UTC 2008-12-04)
Аудио
Идентификатор : 1
Формат : AC-3
Формат/Информация : Audio Coding 3
Расширение режима : CM (complete main)
Параметр Endianness формата : Big
Идентификатор кодека : 2000
Продолжительность : 1 ч. 26 м.
Вид битрейта : Постоянный
Битрейт : 384 Кбит/сек
Каналы : 6 каналов
Расположение каналов : Front: L C R, Side: L R, LFE
Частота : 48,0 КГц
Битовая глубина : 16 бит
Метод сжатия : С потерями
Размер потока : 238 Мбайт (17%)
Выравнивание : Разделение по промежуткам
Продолжительность промежутка : 42 мс. (1,00 видеокадр)
Время предзагрузки промежутка : 500 мс.

Скриншот c названием фильма

Скриншоты

Создавать темы 03-Окт-2013 11:52

[Профиль]  [ЛС] 

VISOTNIK

Стаж: 6 лет 5 месяцев

Сообщений: 7

как фильм

Создавать темы 16-Окт-2013 20:19

[Профиль]  [ЛС] 

bober

Стаж: 5 лет 6 месяцев

Сообщений: 17

Симпатии: 1

Видать некто ещё не смотрел
как фильм

Создавать темы 16-Окт-2013 20:33

[Профиль]  [ЛС] 
Показать сообщения:    
Ответить на тему

Текущее время: 20-Окт 04:39

Часовой пояс: UTC + 5



Вы не можете начинать темы
Вы не можете отвечать на сообщения
Вы не можете редактировать свои сообщения
Вы не можете удалять свои сообщения
Вы не можете голосовать в опросах
Вы не можете прикреплять файлы к сообщениям
Вы не можете скачивать файлы