Одинокий рейнджер / The Lone Ranger (Гор Вербински / Gore Verbinski) [2013, США, приключения, вестерн, комедия, боевик, HDRip][лицензия]

Ответить на тему
 

Suxrob89 ®

Стаж: 7 лет

Сообщений: 933

Симпатии: 564

-Одинокий рейнджер / The Lone Ranger-«Никогда не снимай маску»- Год выпуска: 2013
Страна: США
Жанр: приключения, вестерн, комедия, боевик
Продолжительность: 02:29:33
Перевод: Профессиональный (дублированный) [лицензия]
Субтитры: нет-В ролях: Джонни Депп, Арми Хаммер, Том Уилкинсон, Уильям Фихтнер, Барри Пеппер, Джеймс Бэдж Дэйл, Хелена Бонем Картер, Рут Уилсон, Джеймс Фрейн, Чед Брамметт-Режиссёр:Гор Вербински / Gore Verbinski-Описание:История блюстителя закона Джона Рейда, который с помощью индейца Тонто стал легендарным мстителем в маске, стоящим на защите справедливости. Тонто с юмором и небылицами повествует о тех приключениях, которые пришлось пережить двум непохожим друг на друга героям, сведенным судьбой для того чтобы вместе сражаться против общего врага. Им приходится противостоять жадности и коррупции во времена, когда появление первых железных дорог изменило представление о власти и могуществе в мире.- -Качество: HDRip
Формат: AVI
Видео кодек: XviD
Аудио кодек: AC3
Видео: 720x304 (2.37:1), 23.976 fps, XviD build 50 ~1170 kbps avg, 0.22 bit/pixel
Аудио: 48 kHz, AC3 Dolby Digital, 2/0 (L,R) ch, ~128 kbps-

Media info

D:\Lone.Ranger.2013.D.HDRip.avi
General
Complete name : D:\Lone.Ranger.2013.D.HDRip.avi
Format : AVI
Format/Info : Audio Video Interleave
File size : 1.37 GiB
Duration : 2h 29mn
Overall bit rate : 1 308 Kbps
Writing application : VirtualDubMod 1.5.10.2 (build 2540/release)
Writing library : VirtualDubMod build 2540/release
Video #0
ID : 0
Format : MPEG-4 Visual
Format profile : Advanced [email protected]
Format settings, BVOP : 2
Format settings, QPel : No
Format settings, GMC : No warppoints
Format settings, Matrix : Custom
Codec ID : XVID
Codec ID/Hint : XviD
Duration : 2h 29mn
Bit rate : 1 170 Kbps
Width : 720 pixels
Height : 304 pixels
Display aspect ratio : 2.35:1
Frame rate : 23.976 fps
Color space : YUV
Chroma subsampling : 4:2:0
Bit depth : 8 bits
Scan type : Progressive
Compression mode : Lossy
Bits/(Pixel*Frame) : 0.223
Stream size : 1.22 GiB (89%)
Writing library : XviD 1.2.1 (UTC 2008-12-04)
Audio #1
ID : 1
Format : AC-3
Format/Info : Audio Coding 3
Mode extension : CM (complete main)
Format settings, Endianness : Big
Codec ID : 2000
Duration : 2h 29mn
Bit rate mode : Constant
Bit rate : 128 Kbps
Channel(s) : 2 channels
Channel positions : Front: L R
Sampling rate : 48.0 KHz
Bit depth : 16 bits
Compression mode : Lossy
Stream size : 137 MiB (10%)
Alignment : Split accross interleaves
Interleave, duration : 42 ms (1.00 video frame)
Interleave, preload duration : 500 ms

Скриншоты

Создавать темы 04-Окт-2013 06:12

[Профиль]  [ЛС] 

forgoth

Стаж: 4 года 5 месяцев

Сообщений: 4

как всегда супер!!!!

Создавать темы 04-Окт-2013 09:36

[Профиль]  [ЛС] 

Quality

Стаж: 7 лет 1 месяц

Сообщений: 55

Симпатии: 3

Джонни отжигает)

Создавать темы 04-Окт-2013 11:09

[Профиль]  [ЛС] 

ASUS F5

Стаж: 5 лет 3 месяца

Сообщений: 58

Симпатии: 3

Спасибо за релиз )))

Создавать темы 04-Окт-2013 14:02

[Профиль]  [ЛС] 

newironman

Стаж: 4 года 10 месяцев

Сообщений: 17

Сидов: 1 ?
Включи нитро!!!

Создавать темы 04-Окт-2013 14:12

[Профиль]  [ЛС] 
Показать сообщения:    
Ответить на тему

Текущее время: 21-Авг 20:37

Часовой пояс: UTC + 5



Вы не можете начинать темы
Вы не можете отвечать на сообщения
Вы не можете редактировать свои сообщения
Вы не можете удалять свои сообщения
Вы не можете голосовать в опросах
Вы не можете прикреплять файлы к сообщениям
Вы не можете скачивать файлы