Призрачный патруль / R.I.P.D (Роберт Швентке / Robert Schwentke) [2013; фэнтези, боевик, комедия, криминал; HDRip] [лицензия]

Ответить на тему
 

Suxrob89 ®

Стаж: 7 лет 4 месяца

Сообщений: 933

Симпатии: 564

Призрачный патруль / R.I.P.D.«Они защищают наш мир от гостей с того света»- Страна: США
Жанр: фэнтези, боевик, комедия, криминал
Год выпуска: 2013
Продолжительность: 01:35:51-Перевод: Профессиональный (дублированный) [лицензия]
Cубтитры: нет
Оригинальная аудиодорожка: нет-Режиссер: Роберт Швентке / Robert Schwentke-В ролях: Джефф Бриджес, Райан Рейнольдс, Кевин Бейкон, Мэри-Луиз Паркер, Стефани Зостак, Джеймс Хонг, Мариса Миллер, Роберт Неппер, Майк О’Мэлли, Девин Рэтрей и др.-Описание: Детективы из загробного департамента расследуют преступления по ту сторону могилы и гоняются за не в меру ретивой нечистью. Молодой коп, после гибели от руки неизвестного злоумышленника угодивший в мир иной, в обмен на помощь при расследовании собственного убийства обязуется следующие сто лет посвятить службе в R.I.P.D. и, получив в напарники брутального стрелка эпохи вестернов, выходит на борьбу с неупокоившимся злом.- -Качество: HDRip
Формат: AVI
Видео кодек: XVID
Аудио кодек: AC3
Видео: 720x304 (2.37:1), 23.976 fps, XviD build 73 ~1782 kbps avg, 0.34 bit/pixel
Аудио: 48 kHz, AC3 Dolby Digital, 3/2 (L,C,R,l,r) + LFE ch, ~384.00 kbps avg

MediaInfo

D:\R.I.P.D_2013.HDRip.avi
General
Complete name : D:\R.I.P.D_2013.HDRip.avi
Format : AVI
Format/Info : Audio Video Interleave
File size : 1.45 GiB
Duration : 1h 35mn
Overall bit rate : 2 163 Kbps
Writing application : VirtualDubMod 1.5.10.3 | www.virtualdub-fr.org || (build 2550/release)
Writing library : VirtualDubMod build 2550/release
Video #0
ID : 0
Format : MPEG-4 Visual
Format profile : Advanced [email protected]
Format settings, BVOP : 1
Format settings, QPel : No
Format settings, GMC : No warppoints
Format settings, Matrix : Custom
Codec ID : XVID
Codec ID/Hint : XviD
Duration : 1h 35mn
Bit rate : 1 770 Kbps
Width : 720 pixels
Height : 304 pixels
Display aspect ratio : 2.35:1
Frame rate : 23.976 fps
Color space : YUV
Chroma subsampling : 4:2:0
Bit depth : 8 bits
Scan type : Progressive
Compression mode : Lossy
Bits/(Pixel*Frame) : 0.337
Stream size : 1.18 GiB (82%)
Writing library : XviD 73
Audio #1
ID : 1
Format : AC-3
Format/Info : Audio Coding 3
Mode extension : CM (complete main)
Format settings, Endianness : Big
Codec ID : 2000
Duration : 1h 35mn
Bit rate mode : Constant
Bit rate : 384 Kbps
Channel(s) : 6 channels
Channel positions : Front: L C R, Side: L R, LFE
Sampling rate : 48.0 KHz
Bit depth : 16 bits
Compression mode : Lossy
Stream size : 263 MiB (18%)
Alignment : Split accross interleaves
Interleave, duration : 42 ms (1.00 video frame)
Interleave, preload duration : 500 ms

Скриншоты

Создавать темы 04-Окт-2013 06:41

[Профиль]  [ЛС] 

CREDO_2006

Стаж: 5 лет 10 месяцев

Сообщений: 19

Симпатии: 1

Отличный фильм !!!

Создавать темы 26-Дек-2013 11:22

[Профиль]  [ЛС] 

wolfer

Стаж: 5 лет 10 месяцев

Сообщений: 61

Кто эти люди?

Создавать темы 26-Дек-2013 18:14

[Профиль]  [ЛС] 

sherzod1414

Стаж: 4 года 1 месяц

Сообщений: 107

Симпатии: 40

Фильм норм , "как люди в черным" я смотрел в 3д

Создавать темы 26-Дек-2013 18:44

[Профиль]  [ЛС] 

elipsis

Стаж: 4 года 9 месяцев

Сообщений: 34

классный фильмец качайте !!!

Создавать темы 27-Дек-2013 17:21

[Профиль]  [ЛС] 
Показать сообщения:    
Ответить на тему

Текущее время: 15-Дек 04:01

Часовой пояс: UTC + 5



Вы не можете начинать темы
Вы не можете отвечать на сообщения
Вы не можете редактировать свои сообщения
Вы не можете удалять свои сообщения
Вы не можете голосовать в опросах
Вы не можете прикреплять файлы к сообщениям
Вы не можете скачивать файлы