Дед 005 (Аркадий Григорян, Мгер Мкртчян) [2013 г., комедия, DVDRip] Оригинал

Ответить на тему
 

ruslan08 ®

Стаж: 5 лет 9 месяцев

Сообщений: 73

Симпатии: 7

-Дед 005 (2013) DVDRip-«Спасение влюбленного внука.
Миссия выполнима»
- Год выпуска: 2013
Производство: Россия / СинеПро
Жанр: Комедия
Продолжительность: 01:28:45
Перевод: Не требуется
Язык: Русский [лицензия]
Субтитры: Отсутствуют
Дата мировой премьеры: 15 сентября 2013
Дата российской премьеры: 15 августа 2013, «Парадиз»
Дата выхода DVD релиза: 1 октября 2013, «Парадиз / Активижен»
Режиссер: Аркадий Григорян, Мгер Мкртчян
Продюсер: Аркадий Григорян, Армен Медведев, Кирилл Сахарцев
Актеры: Сергей Шакуров, Андрис Булис, Вахтанг Кикабидзе, Анна Попова, Грант Тохатян, Олеся Судзиловская, Константин Юшкевич, Дмитрий Марьянов, Сергей Степанченко, Татьяна Лютаева
Описание фильма:
Гений разведки Олег Степанович, полковник в отставке, тоскует без работы, коротая дни в парке и у телевизора… А в это время его внук Андрей, начинающий дипломат, попадает в затруднительную романтическую ситуацию. Дед летит к внуку в Ереван, где встречает своего старого товарища, кардиолога Ираклия, который тут же включается в «сердечное» дело. Операция по решению любовных проблем внука получает название «Дед 005», причём методы русского чекиста и грузинского врача иногда шокируют окружающих. Но только настоящая любовь способна взять верх над мастерством виртуозов контрразведки.

Качество видео: DVDRip
Видеокодек: Xvid
Битрейт видео: ~966 Kbps 25.00 fps
Размер кадра: 624x352
Аудиокодек: MP3 2.0
Битрейт аудио: 128 Kbps 48000 Hz

MediaInfo:

Общее
Полное имя                               : Ded005.2013.O.DVDRip.700mb.nnm-club.avi
Формат                                   : AVI
Формат/Информация                        : Audio Video Interleave
Размер файла                             : 701 Мбайт
Продолжительность                        : 1 ч. 28 м.
Общий поток                              : 1104 Кбит/сек
Программа кодирования                    : VirtualDubMod 1.5.10.3 || (build 2550/release)
Библиотека кодирования                   : VirtualDubMod build 2550/release
Видео
Идентификатор                            : 0
Формат                                   : MPEG-4 Visual
Профиль формата                          : Advanced [email protected]
Параметр BVOP формата                    : 2
Параметр QPel формата                    : Нет
Параметр GMC формата                     : Без точки перехода
Параметр матрицы формата                 : Default (MPEG)
Идентификатор кодека                     : XVID
Идентификатор кодека/Подсказка           : XviD
Продолжительность                        : 1 ч. 28 м.
Битрейт                                  : 966 Кбит/сек
Ширина                                   : 624 пикселя
Высота                                   : 352 пикселя
Соотношение сторон                       : 16:9
Частота кадров                           : 25,000 кадров/сек
Цветовое пространство                    : YUV
Субдискретизация насыщенности            : 4:2:0
Битовая глубина                          : 8 бит
Тип развёртки                            : Прогрессивная
Метод сжатия                             : С потерями
Бит/(Пиксели*Кадры)                      : 0.176
Размер потока                            : 613 Мбайт (88%)
Библиотека кодирования                   : XviD 1.2.1 (UTC 2008-12-04)
Аудио
Идентификатор                            : 1
Формат                                   : MPEG Audio
Версия формата                           : Version 1
Профиль формата                          : Layer 3
Идентификатор кодека                     : 55
Идентификатор кодека/Подсказка           : MP3
Продолжительность                        : 1 ч. 28 м.
Вид битрейта                             : Постоянный
Битрейт                                  : 128 Кбит/сек
Каналы                                   : 2 канала
Частота                                  : 48,0 КГц
Метод сжатия                             : С потерями
Размер потока                            : 81,3 Мбайт (12%)
Выравнивание                             : Соединение по промежуткам
Продолжительность промежутка             : 40  мс. (1,00 видеокадр)
Время предзагрузки промежутка            : 504  мс.
Библиотека кодирования                   : LAME3.99r
Настройки программы                      : -m s -V 4 -q 2 -lowpass 17 -b 128

Скриншоты:

Создавать темы 04-Окт-2013 08:03

[Профиль]  [ЛС] 

Azazel

Стаж: 5 лет 8 месяцев

Сообщений: 62

Симпатии: 6

ты где пачему не качает пара раздавать

Создавать темы 04-Окт-2013 09:59

[Профиль]  [ЛС] 

Jnec

Стаж: 4 года 11 месяцев

Сообщений: 165

Спасибо

Создавать темы 21-Окт-2013 11:09

[Профиль]  [ЛС] 

mr.rakhimoff

Стаж: 3 года 11 месяцев

Сообщений: 9

рейтинг кинопоиска низкий

Создавать темы 01-Ноя-2013 13:23

[Профиль]  [ЛС] 

фазилов

Стаж: 3 года 8 месяцев

Сообщений: 310

Симпатии: 344

Фильм так себе.

Создавать темы 10-Апр-2014 11:16

[Профиль]  [ЛС] 
Показать сообщения:    
Ответить на тему

Текущее время: 17-Окт 16:38

Часовой пояс: UTC + 5



Вы не можете начинать темы
Вы не можете отвечать на сообщения
Вы не можете редактировать свои сообщения
Вы не можете удалять свои сообщения
Вы не можете голосовать в опросах
Вы не можете прикреплять файлы к сообщениям
Вы не можете скачивать файлы