Город ангелов / City of Angels (Брэд Силберлинг / Brad Silberling) [1998, Германия, США, фэнтези, триллер, драма, мелодрама, HDTVRip 720p] 2x Dub + DVO + 3x AVO + VO + Sub Rus, Eng + Original Eng

Ответить на тему
 

Robot-IX ®

Стаж: 5 лет 5 месяцев

Сообщений: 223

Симпатии: 9

--Город ангелов / City of Angels«Она не верила в существование ангелов, пока не влюбилась в одного из них.»- Страна: Германия США
Студия: Atlas Entertainment, Monarchy Enterprises B.V., Regency Enterprises, Taurus Film, Warner Bros. Pictures Co.
Жанр: фэнтези, драма, мелодрама, ...
Год выпуска: 1998
Продолжительность: 1:54:17
Перевод 01: Дубляж, Мост Видео
Перевод 02: Дубляж, Варус Видео
Перевод 03: Двухголосый закадровый, НТВ+
Перевод 04: Авторский одноголосый (Сергей Визгунов)
Перевод 05: Авторский одноголосый (Александр Кашкин (Первомайский)
Перевод 06: Авторский одноголосый (Алексей Медведев)
Перевод 07: Одноголосый закадровый, Неизвестный
Cубтитры: русские, английские
Оригинальная аудиодорожка: английский
Режиссер: Брэд Силберлинг / Brad Silberling
В ролях: Николас Кейдж, Мег Райан, Андре Брогер, Деннис Франц, Колм Фиор, Робин Бартлетт, Джоанна Мерлин, Сара Дэмф, Ронда Дотсон, Найджел Гиббс ...
Описание: Ангелы живут не на небесах. Они невидимо присутствуют рядом с людьми, прислушиваясь к их мыслям и направляя их поступки, подбадривая и утешая
в минуты отчаяния. Но для них не существует мира человеческих чувств: вкуса черного кофе, боли порезанного пальца или любви. Поэтому некоторых из них так тянет
к людям, и порой ангел теряет свои крылья и превращается в простого смертного. Что и происходит с героем фильма, которого увлекла на Землю любовь к женщине.-Доп. информация:
IMDB: 6.5/10 (73,556 votes)
КиноПоиск: 7.994/10 (36,475 votes)
Награды-Тип релиза: HDTvRip 720p HDCLUB
Контейнер: MKV
Видео кодек: H.264/AVC
Аудио кодек: AС3
Видео: Profile [email protected] AVC / 1280x536 (2.40:1) / 23,976 fps / 7 224 Kbps
Аудио #1: AC3 5.1, 48 kHz, 384 kbps avg |Дубляж, Мост Видео|
Аудио #2: AC3 2.0, 48 kHz, 192 kbps avg |Дубляж, Варус Видео|
Аудио #3: AC3 2.0, 48 kHz, 192 kbps avg |Двухголосый закадровый, НТВ+|
Аудио #4: AC3 5.1, 48 kHz, 384 kbps avg |Авторский (одноголосый закадровый), Визгунов|
Аудио #5: AC3 5.1, 48 kHz, 384 kbps avg |Авторский (одноголосый закадровый), Кашкин (Первомайский)|
Аудио #6: AC3 2.0, 48 kHz, 192 kbps avg |Авторский (одноголосый закадровый), Медведев|
Аудио #7: AC3 2.0, 48 kHz, 192 kbps avg |Одноголосый закадровый, Неизвестный|
Аудио #8: AC3 5.1, 48 kHz, 384 kbps avg |Оригинал|
Формат субтитров: softsub (UTF-8)-

Рецензия

Сергей Кудрявцев, kinopoisk.ru. ...из книги «3500 кинорецензий»
Если неамериканское кино, а тем более — европейское, наследует давним классическим традициям постижения образов ангелов и духов в искусстве, то за океаном подходят к этой теме зачастую облегчённо или же развлекательно-переживательски. Недавним образцом отчасти упрощённой и усечённой адаптации вечных сюжетов является типично американская мелодрама «Город ангелов» (как если бы сплавили воедино «Эту прекрасную жизнь» Фрэнка Капры, «Призрак» Джерри Зукера и, например, телесериал «Скорая помощь»), которая вольно пересказывает подлинно философский и кинематографически изысканный фильм «Небо над Берлином» Вима Вендерса.
Хотя 34-летний режиссёр Брэд Силберлинг, уже причастный к «играм с бесплотными созданиями» в фантазии «Каспер», приложил вроде бы немалые для голливудского постановщика усилия, чтобы представить по возможности тактично и с чувством меры внезапную любовь ангела Сета (удачно справился с ролью Николас Кейдж) к земной женщине-кардиологу Мэгги. Ангелы из Лос-Анджелеса, как и их сородичи из Берлина, одеты во всё чёрное (это в солнечной Калифорнии-то!), любят сидеть где-то на высоте или посещать библиотеку, вдобавок же собираются на берегу Тихого океана на рассвете и закате. А некоторые, ещё раньше сознательно избрав свою земную смертную судьбу, подобно Нэтаниэлу Мессингеру (по фамилии нетрудно догадаться, что он — бывший посланец небес) в колоритном исполнении Денниса Франца, оказываются самыми жизнелюбивыми и полнокровно живущими из всех людей, которые вообще-то более склонны к разочарованиям и паническому страху смерти.
«Город ангелов» пользовался большим успехом в США, а особенно — в мире, что пусть и не сравнимо с популярностью уже упоминавшегося «Призрака», однако (увы!) абсолютно недостижимо для «Неба над Берлином», рассчитанного, безусловно, на интеллектуальную публику. Так уж получается, что оригинальные и необычные идеи становятся достоянием широких масс только в адаптированной голливудской версии.

Интересные факты

  • В посвящении фильма было всего два слова: «Посвящается Дон». Дело в том, что перед самым выходом фильма на экраны, одна из его продюсеров Дон Стил (Dawn Steel) скончалась от рака.
  • Сцена, в которой Николас Кейдж и Деннис Франц сидят на краю крыши небоскреба, была снята в реальности. И это несмотря на то, что оба актера очень боялись высоты.
  • Джонни Депп рассматривался на главную мужскую роль.

MediaInfo

General
Unique ID                                : 252553542366129104607908869878115102010 (0xBE000B00C373B2FA91574DD260366D3A)
Complete name                            : D:\Torent\City.of.Angels.1998.720p.HDTV.7xRus.Ukr.Eng.HDCLUB.mkv
Format                                   : Matroska
Format version                           : Version 4 / Version 2
File size                                : 7.76 GiB
Duration                                 : 1h 54mn
Overall bit rate                         : 9 722 Kbps
Encoded date                             : UTC 2013-10-04 17:54:41
Writing application                      : mkvmerge v6.0.0 ('Coming Up For Air') built on Jan 20 2013 09:52:00
Writing library                          : libebml v1.3.0 + libmatroska v1.4.0
Video
ID                                       : 1
Format                                   : AVC
Format/Info                              : Advanced Video Codec
Format profile                           : [email protected]
Format settings, CABAC                   : Yes
Format settings, ReFrames                : 9 frames
Muxing mode                              : Container [email protected]
Codec ID                                 : V_MPEG4/ISO/AVC
Duration                                 : 1h 54mn
Bit rate                                 : 7 224 Kbps
Width                                    : 1 280 pixels
Height                                   : 536 pixels
Display aspect ratio                     : 2.40:1
Frame rate                               : 23.976 fps
Color space                              : YUV
Chroma subsampling                       : 4:2:0
Bit depth                                : 8 bits
Scan type                                : Progressive
Bits/(Pixel*Frame)                       : 0.439
Stream size                              : 5.77 GiB (74%)
Title                                    : City.of.Angels.1998.720p.HDTV.7xRus.Eng.HDCLUB
Writing library                          : x264 core 120 r2164 da19765
Encoding settings                        : cabac=1 / ref=9 / deblock=1:-2:-2 / analyse=0x3:0x133 / me=umh / subme=10 / psy=1 / psy_rd=1.10:0.10 / mixed_ref=1 / me_range=32 / chroma_me=1 / trellis=2 / 8x8dct=1 / cqm=0 / deadzone=6,6 / fast_pskip=1 / chroma_qp_offset=-6 / threads=6 / sliced_threads=0 / nr=0 / decimate=0 / interlaced=0 / bluray_compat=0 / constrained_intra=0 / bframes=8 / b_pyramid=2 / b_adapt=2 / b_bias=0 / direct=3 / weightb=1 / open_gop=0 / weightp=2 / keyint=240 / keyint_min=22 / scenecut=40 / intra_refresh=0 / rc=crf / mbtree=0 / crf=18.0 / qcomp=0.80 / qpmin=0 / qpmax=69 / qpstep=4 / ip_ratio=1.10 / pb_ratio=1.10 / aq=2:0.80
Language                                 : English
Default                                  : Yes
Forced                                   : No
Audio #1
ID                                       : 2
Format                                   : AC-3
Format/Info                              : Audio Coding 3
Mode extension                           : CM (complete main)
Codec ID                                 : A_AC3
Duration                                 : 1h 54mn
Bit rate mode                            : Constant
Bit rate                                 : 384 Kbps
Channel(s)                               : 6 channels
Channel positions                        : Front: L C R, Side: L R, LFE
Sampling rate                            : 48.0 KHz
Bit depth                                : 16 bits
Compression mode                         : Lossy
Stream size                              : 314 MiB (4%)
Title                                    : AC3 5.1 ch 384 kbps Dub Most-Video
Language                                 : Russian
Default                                  : Yes
Forced                                   : Yes
Audio #2
ID                                       : 3
Format                                   : AC-3
Format/Info                              : Audio Coding 3
Mode extension                           : CM (complete main)
Codec ID                                 : A_AC3
Duration                                 : 1h 54mn
Bit rate mode                            : Constant
Bit rate                                 : 192 Kbps
Channel(s)                               : 2 channels
Channel positions                        : Front: L R
Sampling rate                            : 48.0 KHz
Bit depth                                : 16 bits
Compression mode                         : Lossy
Stream size                              : 157 MiB (2%)
Title                                    : AC3 2 ch 192 kbps Dub Varus-Video
Language                                 : Russian
Default                                  : No
Forced                                   : No
Audio #3
ID                                       : 4
Format                                   : AC-3
Format/Info                              : Audio Coding 3
Mode extension                           : CM (complete main)
Codec ID                                 : A_AC3
Duration                                 : 1h 54mn
Bit rate mode                            : Constant
Bit rate                                 : 192 Kbps
Channel(s)                               : 2 channels
Channel positions                        : Front: L R
Sampling rate                            : 48.0 KHz
Bit depth                                : 16 bits
Compression mode                         : Lossy
Stream size                              : 157 MiB (2%)
Title                                    : AC3 2 ch 192 kbps DVO HTB+
Language                                 : Russian
Default                                  : No
Forced                                   : No
Audio #4
ID                                       : 5
Format                                   : AC-3
Format/Info                              : Audio Coding 3
Mode extension                           : CM (complete main)
Codec ID                                 : A_AC3
Duration                                 : 1h 54mn
Bit rate mode                            : Constant
Bit rate                                 : 384 Kbps
Channel(s)                               : 6 channels
Channel positions                        : Front: L C R, Side: L R, LFE
Sampling rate                            : 48.0 KHz
Bit depth                                : 16 bits
Compression mode                         : Lossy
Stream size                              : 314 MiB (4%)
Title                                    : AC3 5.1 ch 384 kbps Сергей Визгунов
Language                                 : Russian
Default                                  : No
Forced                                   : No
Audio #5
ID                                       : 6
Format                                   : AC-3
Format/Info                              : Audio Coding 3
Mode extension                           : CM (complete main)
Codec ID                                 : A_AC3
Duration                                 : 1h 54mn
Bit rate mode                            : Constant
Bit rate                                 : 384 Kbps
Channel(s)                               : 6 channels
Channel positions                        : Front: L C R, Side: L R, LFE
Sampling rate                            : 48.0 KHz
Bit depth                                : 16 bits
Compression mode                         : Lossy
Stream size                              : 314 MiB (4%)
Title                                    : AC3 5.1 ch 384 kbps Александр Кашкин  (Первомайский)
Language                                 : Russian
Default                                  : No
Forced                                   : No
Audio #6
ID                                       : 7
Format                                   : AC-3
Format/Info                              : Audio Coding 3
Mode extension                           : CM (complete main)
Codec ID                                 : A_AC3
Duration                                 : 1h 54mn
Bit rate mode                            : Constant
Bit rate                                 : 192 Kbps
Channel(s)                               : 2 channels
Channel positions                        : Front: L R
Sampling rate                            : 48.0 KHz
Bit depth                                : 16 bits
Compression mode                         : Lossy
Stream size                              : 157 MiB (2%)
Title                                    : AC3 2 ch 192 kbps Алексей Медведев
Language                                 : Russian
Default                                  : No
Forced                                   : No
Audio #7
ID                                       : 8
Format                                   : AC-3
Format/Info                              : Audio Coding 3
Mode extension                           : CM (complete main)
Codec ID                                 : A_AC3
Duration                                 : 1h 54mn
Bit rate mode                            : Constant
Bit rate                                 : 192 Kbps
Channel(s)                               : 2 channels
Channel positions                        : Front: L R
Sampling rate                            : 48.0 KHz
Bit depth                                : 16 bits
Compression mode                         : Lossy
Stream size                              : 157 MiB (2%)
Title                                    : AC3 2 ch 192 kbps VO Unknown
Language                                 : Russian
Default                                  : No
Forced                                   : No
Audio #8
ID                                       : 9
Format                                   : AC-3
Format/Info                              : Audio Coding 3
Mode extension                           : CM (complete main)
Codec ID                                 : A_AC3
Duration                                 : 1h 54mn
Bit rate mode                            : Constant
Bit rate                                 : 384 Kbps
Channel(s)                               : 6 channels
Channel positions                        : Front: L C R, Side: L R, LFE
Sampling rate                            : 48.0 KHz
Bit depth                                : 16 bits
Compression mode                         : Lossy
Stream size                              : 314 MiB (4%)
Title                                    : AC3 5.1 ch 384 kbps HDTV
Language                                 : English
Default                                  : No
Forced                                   : No
Text #1
ID                                       : 10
Format                                   : UTF-8
Codec ID                                 : S_TEXT/UTF8
Codec ID/Info                            : UTF-8 Plain Text
Language                                 : Russian
Default                                  : No
Forced                                   : No
Text #2
ID                                       : 11
Format                                   : UTF-8
Codec ID                                 : S_TEXT/UTF8
Codec ID/Info                            : UTF-8 Plain Text
Language                                 : English
Default                                  : No
Forced                                   : No

Скриншоты









Последний раз редактировалось: Robot-IX (2013-10-11 10:28), всего редактировалось 1 раз

Создавать темы 05-Окт-2013 01:21

[Профиль]  [ЛС] 

alexey.555

Стаж: 5 лет 5 месяцев

Сообщений: 137

Симпатии: 22

Спасибо, классный фильм!

Создавать темы 05-Окт-2013 01:25

[Профиль]  [ЛС] 

baxa_1818

Стаж: 5 лет 4 месяца

Сообщений: 62

Симпатии: 3

Robot-IX, отличные релизи.
ещё какие фильмы есть у вас в таком формате?

Создавать темы 05-Окт-2013 01:33

[Профиль]  [ЛС] 

Robot-IX ®

Стаж: 5 лет 5 месяцев

Сообщений: 223

Симпатии: 9

p.s. в великолепии... переводов! ))
фильм стоит внимания Рекомендую !

Создавать темы 05-Окт-2013 13:22

[Профиль]  [ЛС] 

Дмитриев

Стаж: 7 лет 3 месяца

Сообщений: 139

Симпатии: 12

Robot-IX Спасибо Николаса Кейджа классный актёр

Создавать темы 05-Окт-2013 14:22

[Профиль]  [ЛС] 

dandyman

Стаж: 6 лет 9 месяцев

Сообщений: 68

Симпатии: 4

Один из моих любимых фильмов. Чего стоит саундтрек в исполнение группы "Goo Goo Dolls" песни "Iris".
http://file.nnm.uz/?d=525967321

Создавать темы 12-Окт-2013 20:15

[Профиль]  [ЛС] 

Robot-IX ®

Стаж: 5 лет 5 месяцев

Сообщений: 223

Симпатии: 9

Один из моих любимых фильмов. Чего стоит саундтрек в исполнение группы "Goo Goo Dolls" песни "Iris".
http://file.nnm.uz/?d=525967321
спасибо за отдельно.... саундтрек!


Последний раз редактировалось: Robot-IX (2013-10-14 15:03), всего редактировалось 1 раз

Создавать темы 12-Окт-2013 20:49

[Профиль]  [ЛС] 

dandyman

Стаж: 6 лет 9 месяцев

Сообщений: 68

Симпатии: 4

Жена каждый раз плачет при просмотре этого фильма. Щас скачаю и поплачем, опять

Создавать темы 12-Окт-2013 21:12

[Профиль]  [ЛС] 

Robot-IX ®

Стаж: 5 лет 5 месяцев

Сообщений: 223

Симпатии: 9

Robot-IX Спасибо за Николаса Кейджа классный актёр
да.... самая романтическая роль в карьере Николаса Кейджа ! ))

Создавать темы 18-Ноя-2013 00:35

[Профиль]  [ЛС] 
Показать сообщения:    
Ответить на тему

Текущее время: 20-Сен 23:15

Часовой пояс: UTC + 5



Вы не можете начинать темы
Вы не можете отвечать на сообщения
Вы не можете редактировать свои сообщения
Вы не можете удалять свои сообщения
Вы не можете голосовать в опросах
Вы не можете прикреплять файлы к сообщениям
Вы не можете скачивать файлы